百度云资源论坛

 找回密码
 立即注册
搜索

尸体在何处终结? Swans.Where.Does.A.Body.End.2019.Extended.Cut.720p.B...

[复制链接]
百度云资源 发表于 2020-10-5 21:15:26 | 显示全部楼层 |阅读模式
帖子完整标题:尸体在何处终结? Swans.Where.Does.A.Body.End.2019.Extended.Cut.720p.BluRay.x264-TREBLE 9.20GB




◎译  名 尸体在何处终结?/Swans - Where Does A Body End
◎片  名 Where Does A Body End?
◎年  代 2019
◎产  地 加拿大 Canada
◎类  别 纪录片 / 音乐
◎语  言 英语
◎上映日期 2019-06-09(美国)
◎IMDb评分  7.7/10 from 84 users
◎片  长 121分钟
◎编  剧 罗德尼·阿谢尔 Rodney Ascher
◎主  演 德文德拉·班哈特 Devendra Banhart
       Blixa Bargeld
       瑟斯顿·摩尔 Thurston Moore
       Amanda Palmer
       Lee Ranaldo
       珍妮·贝丝 Jehnny Beth
       迈克·吉拉 Michael Gira

◎标  签 音乐 | 美国 | 纪录片 | 摇滚 | 加拿大 | ThurstonMoore | ThorHarris | Swans

◎简  介

  The worldview of Michael Gira, through his life as a globetrotter and his four decades leading Swans, a group that he founded in the noisy and iconoclastic New York underground of the early '80s and that keeps reinventing itself today.
Video
ID                                       : 3
Format                                   : AVC
Format settings                          : CABAC / 8 Ref Frames
Format settings, CABAC                   : Yes
Format settings, Reference frames        : 8 frames
Codec ID                                 : V_MPEG4/ISO/AVC
Duration                                 : 2 h 41 min
Bit rate                                 : 7 462 kb/s
Width                                    : 1 280 pixels
Height                                   : 720 pixels
Display aspect ratio                     : 16:9
Frame rate mode                          : Constant
Frame rate                               : 23.976 (24000/1001/189150) FPS
Color space                              : YUV
Chroma subsampling                       : 4:2:0
Bit depth                                : 8 bits
Scan type                                : Progressive
Bits/(Pixel*Frame)                       : 0.338
Stream size                              : 8.39 GiB (91%)
Writing library                          : x264 core 161 r3018 db0d417
Encoding settings                        : cabac=1 / ref=8 / deblock=1:-3:-3 / analyse=0x3:0x133 / me=umh / subme=9 / psy=1 / psy_rd=1.00:0.00 / mixed_ref=1 / me_range=16 / chroma_me=1 / trellis=2 / 8x8dct=1 / cqm=0 / deadzone=21,11 / fast_pskip=1 / chroma_qp_offset=-2 / threads=22 / lookahead_threads=1 / sliced_threads=0 / nr=0 / decimate=1 / interlaced=0 / bluray_compat=0 / constrained_intra=0 / bframes=3 / b_pyramid=2 / b_adapt=2 / b_bias=0 / direct=3 / weightb=1 / open_gop=0 / weightp=2 / keyint=250 / keyint_min=23 / scenecut=40 / intra_refresh=0 / rc_lookahead=60 / rc=crf / mbtree=1 / crf=18.0 / qcomp=0.60 / qpmin=0 / qpmax=69 / qpstep=4 / ip_ratio=1.40 / aq=3:0.80
Language                                 : English
Default                                  : Yes
Forced                                   : No
Color range                              : Limited
Matrix coefficients                      : BT.709

Audio
ID                                       : 1
Format                                   : FLAC
Format/Info                              : Free Lossless Audio Codec
Codec ID                                 : A_FLAC
Duration                                 : 2 h 41 min
Bit rate mode                            : Variable
Bit rate                                 : 714 kb/s
Channel(s)                               : 2 channels
Channel layout                           : L R
Sampling rate                            : 48.0 kHz
Frame rate                               : 11.719 FPS (4096 SPF)
Bit depth                                : 16 bits
Compression mode                         : Lossless
Stream size                              : 822 MiB (9%)
Title                                    : FLAC 2.0
Writing library                          : libFLAC 1.3.3 (UTC 2019-08-04)
Language                                 : English
Default                                  : Yes
Forced                                   : No

Text
ID                                       : 2
Format                                   : PGS
Muxing mode                              : zlib
Codec ID                                 : S_HDMV/PGS
Codec ID/Info                            : Picture based subtitle format used on BDs/HD-DVDs
Duration                                 : 2 h 36 min
Bit rate                                 : 24.6 kb/s
Count of elements                        : 3533
Stream size                              : 27.5 MiB (0%)
Title                                    : English
Language                                 : English
Default                                  : Yes
Forced                                   : No

Menu
00:00:00.000                             : en:Chapter 01
00:09:19.976                             : en:Chapter 02
00:23:03.966                             : en:Chapter 03
00:32:43.712                             : en:Chapter 04
00:41:32.323                             : en:Chapter 05
00:50:19.266                             : en:Chapter 06
00:57:51.301                             : en:Chapter 07
01:10:06.077                             : en:Chapter 08
01:14:56.492                             : en:Chapter 09
01:30:09.738                             : en:Chapter 10
01:36:32.453                             : en:Chapter 11
01:48:33.924                             : en:Chapter 12
01:55:29.756                             : en:Chapter 13
02:07:17.672                             : en:Chapter 14
02:18:21.502                             : en:Chapter 15
02:22:10.105                             : en:Chapter 16




                                                                                                                                                                                                        


4f18d47d23b2bab22145376bfe62e9a5.zip (47.59 KB, 下载次数: 0)

回复

使用道具 举报

小黑屋|百度云资源论坛 |网站地图

本网站所有资源来自网络,如无意中侵犯了您的权益,请发邮件至 [email protected],立即清除相关链接

GMT+8, 2020-10-30 03:47 , Processed in 0.101077 second(s), 23 queries .

Powered by Discuz! X3.2

© 2001-2013 Comsenz Inc.

快速回复 返回顶部 返回列表