百度云资源论坛

 找回密码
 立即注册
搜索

外星来客 They.Came.from.Beyond.Space.1967.720p.BluRay.x264-GUACAMOLE 5.13GB

[复制链接]
百度云资源 发表于 2020-10-5 21:15:26 | 显示全部楼层 |阅读模式
帖子完整标题:外星来客 They.Came.from.Beyond.Space.1967.720p.BluRay.x264-GUACAMOLE 5.13GB




◎译  名 外星来客
◎片  名 They Came from Beyond Space
◎年  代 1967
◎产  地 英国
◎类  别 科幻 / 恐怖
◎语  言 英语
◎上映日期 1967-05(美国)
◎IMDb评分  4.6/10 from 1386 users
◎片  长 85 分钟
◎导  演 弗雷迪·弗朗西斯 Freddie Francis
◎编  剧 米尔顿·苏博茨基 Milton Subotsky / 约瑟夫·米勒德 Joseph Millard
◎主  演 罗伯特·赫顿 Robert Hutton
       珍妮弗·杰恩 Jennifer Jayne
       齐亚·莫希丁 Zia Mohyeddin
       伯纳德·凯 Bernard Kay
       迈克尔·高夫 Michael Gough
       Robin Parkinson
       Kenneth Kendall
       Diana King
       杰克·兰伯特 Jack Lambert
       John Harvey
       Michael Hawkins
       Frank Forsyth
       Norman Claridge
       S. Newton Anderson
       James Donnelly

◎标  签 科幻 | 英国 | 恐怖 | 1967 | 英国电影 | 美國 | britishhorror

◎简  介

  暂无相关剧情介绍
Video
ID                                       : 1
Format                                   : AVC
Format/Info                              : Advanced Video Codec
Format settings                          : CABAC / 8 Ref Frames
Format settings, CABAC                   : Yes
Format settings, Reference frames        : 8 frames
Codec ID                                 : V_MPEG4/ISO/AVC
Duration                                 : 1 h 25 min
Bit rate                                 : 7 345 kb/s
Width                                    : 1 280 pixels
Height                                   : 692 pixels
Display aspect ratio                     : 1.85:1
Frame rate mode                          : Constant
Frame rate                               : 23.976 (24000/1001/189150) FPS
Color space                              : YUV
Chroma subsampling                       : 4:2:0
Bit depth                                : 8 bits
Scan type                                : Progressive
Bits/(Pixel*Frame)                       : 0.346
Stream size                              : 4.37 GiB (85%)
Writing library                          : x264 core 161 r3018 db0d417
Encoding settings                        : cabac=1 / ref=8 / deblock=1:-3:-3 / analyse=0x3:0x133 / me=umh / subme=9 / psy=1 / psy_rd=1.00:0.00 / mixed_ref=1 / me_range=16 / chroma_me=1 / trellis=2 / 8x8dct=1 / cqm=0 / deadzone=21,11 / fast_pskip=0 / chroma_qp_offset=-2 / threads=22 / lookahead_threads=1 / sliced_threads=0 / nr=0 / decimate=1 / interlaced=0 / bluray_compat=0 / constrained_intra=0 / bframes=3 / b_pyramid=2 / b_adapt=2 / b_bias=0 / direct=3 / weightb=1 / open_gop=0 / weightp=2 / keyint=250 / keyint_min=23 / scenecut=40 / intra_refresh=0 / rc_lookahead=60 / rc=crf / mbtree=1 / crf=17.0 / qcomp=0.60 / qpmin=0 / qpmax=69 / qpstep=4 / ip_ratio=1.40 / aq=3:0.70
Default                                  : Yes
Forced                                   : No
Color range                              : Limited
Color primaries                          : BT.709
Transfer characteristics                 : BT.709
Matrix coefficients                      : BT.709

Audio
ID                                       : 2
Format                                   : FLAC
Format/Info                              : Free Lossless Audio Codec
Codec ID                                 : A_FLAC
Duration                                 : 1 h 25 min
Bit rate mode                            : Variable
Bit rate                                 : 1 280 kb/s
Channel(s)                               : 2 channels
Channel layout                           : L R
Sampling rate                            : 48.0 kHz
Frame rate                               : 10.417 FPS (4608 SPF)
Bit depth                                : 24 bits
Compression mode                         : Lossless
Stream size                              : 780 MiB (15%)
Writing library                          : MakeMKV v1.15.1 win(x64-release)
Language                                 : English
Default                                  : Yes
Forced                                   : No

Menu
00:00:00.000                             : en:00:00:00.000
00:09:29.861                             : en:00:09:29.861
00:22:45.322                             : en:00:22:45.322
00:31:28.095                             : en:00:31:28.095
00:40:16.706                             : en:00:40:16.706
00:49:12.241                             : en:00:49:12.241
00:59:35.238                             : en:00:59:35.238
01:10:36.023                             : en:01:10:36.023
01:24:12.923                             : en:01:24:12.923




                                                                                                                                                                                                        


210690e55d71d6ed526e72e567d4d40a.zip (26.38 KB, 下载次数: 0)

回复

使用道具 举报

小黑屋|百度云资源论坛 |网站地图

本网站所有资源来自网络,如无意中侵犯了您的权益,请发邮件至 [email protected],立即清除相关链接

GMT+8, 2020-10-30 04:12 , Processed in 0.233918 second(s), 23 queries .

Powered by Discuz! X3.2

© 2001-2013 Comsenz Inc.

快速回复 返回顶部 返回列表