百度云资源论坛

 找回密码
 立即注册
搜索

机器闹鬼/幽灵电脑 Ghost.in.the.Machine.1993.720p.BluRay.x264-GUACAMOL...

[复制链接]
百度云电影 发表于 2020-10-3 17:38:14 | 显示全部楼层 |阅读模式
帖子完整标题:机器闹鬼/幽灵电脑 Ghost.in.the.Machine.1993.720p.BluRay.x264-GUACAMOLE 5.74GB




◎译  名 机器闹鬼/幽灵电脑/电脑杀手/网路凶灵/鬼金属
◎片  名 Ghost in the Machine
◎年  代 1993
◎产  地 美国
◎类  别 科幻 / 惊悚 / 恐怖
◎语  言 英语
◎上映日期 1993-12-29(美国)
◎IMDb评分  4.6/10 from 3216 users
◎片  长 104 分钟
◎导  演 瑞秋·塔拉蕾 Rachel Talalay
◎编  剧 威廉姆·戴维斯 William Davies / 威廉·奥斯本 William Osborne
◎主  演 凯伦·阿兰 Karen Allen
       克里斯·马尔基 Chris Mulkey
       威尔·霍纳夫 Wil Horneff
       米密·利伯 Mimi Lieber
       Charles Stransky
       理查德·希夫 Richard Schiff
       Andrew Woodworth
       唐·基思·奥珀 Don Keith Opper
       杰西卡·沃尔特 Jessica Walter
       阿利克斯·科罗马扎伊 Alix Koromzay
       南茜·费什 Nancy Fish
       Carl Gabriel Yorke
       马修·格拉夫 Matthew Glave
       Charles Haugk
       Helen Greenberg
       里克·杜科蒙 Rick Ducommun
       克里斯·埃里斯 Chris Ellis
       布兰登·昆恩·亚当斯 Brandon Quintin Adams
       Michael LaGuardia
       理查德·麦肯泽 Richard McKenzie

◎标  签 科幻 | 惊悚 | 美国 | 恐怖 | CULT | 1993 | B级片 | 地方台

◎简  介

  Karl Hochman, a technician in a computer shop, is also "The Address-Book Killer", who obtains the names of his victims from stolen address-books. Terry Munroe and her son Josh come into the store to price software, and a salesman uses Terry's address-book to demonstrate a hand-held scanner. Karl obtains the file, and while driving to Terry's house that night in a heavy electrical storm, his car runs off the road and lands upside down in a cemetery. While Karl is undergoing a CAT scan at the hospital, a surge of lightning courses through the building, and Karl's mind is transformed into electrical energy. Karl uses the electrical grid and computer networks to continue his killing-spree.
Video
ID                                       : 1
Format                                   : AVC
Format/Info                              : Advanced Video Codec
Format settings                          : CABAC / 8 Ref Frames
Format settings, CABAC                   : Yes
Format settings, Reference frames        : 8 frames
Codec ID                                 : V_MPEG4/ISO/AVC
Duration                                 : 1 h 35 min
Bit rate                                 : 7 918 kb/s
Width                                    : 1 280 pixels
Height                                   : 692 pixels
Display aspect ratio                     : 1.85:1
Frame rate mode                          : Constant
Frame rate                               : 23.976 (24000/1001/189150) FPS
Color space                              : YUV
Chroma subsampling                       : 4:2:0
Bit depth                                : 8 bits
Scan type                                : Progressive
Bits/(Pixel*Frame)                       : 0.373
Stream size                              : 5.27 GiB (92%)
Writing library                          : x264 core 161 r3018 db0d417
Encoding settings                        : cabac=1 / ref=8 / deblock=1:-3:-3 / analyse=0x3:0x133 / me=umh / subme=9 / psy=1 / psy_rd=1.00:0.00 / mixed_ref=1 / me_range=16 / chroma_me=1 / trellis=2 / 8x8dct=1 / cqm=0 / deadzone=21,11 / fast_pskip=0 / chroma_qp_offset=-2 / threads=22 / lookahead_threads=1 / sliced_threads=0 / nr=0 / decimate=1 / interlaced=0 / bluray_compat=0 / constrained_intra=0 / bframes=3 / b_pyramid=2 / b_adapt=2 / b_bias=0 / direct=3 / weightb=1 / open_gop=0 / weightp=2 / keyint=250 / keyint_min=23 / scenecut=40 / intra_refresh=0 / rc_lookahead=60 / rc=crf / mbtree=1 / crf=18.0 / qcomp=0.60 / qpmin=0 / qpmax=69 / qpstep=4 / ip_ratio=1.40 / aq=3:0.70
Default                                  : Yes
Forced                                   : No
Color range                              : Limited
Color primaries                          : BT.709
Transfer characteristics                 : BT.709
Matrix coefficients                      : BT.709

Audio
ID                                       : 2
Format                                   : FLAC
Format/Info                              : Free Lossless Audio Codec
Codec ID                                 : A_FLAC
Duration                                 : 1 h 35 min
Bit rate mode                            : Variable
Bit rate                                 : 690 kb/s
Channel(s)                               : 2 channels
Channel layout                           : L R
Sampling rate                            : 48.0 kHz
Frame rate                               : 10.417 FPS (4608 SPF)
Bit depth                                : 16 bits
Compression mode                         : Lossless
Stream size                              : 471 MiB (8%)
Writing library                          : MakeMKV v1.15.1 win(x64-release)
Language                                 : English
Default                                  : Yes
Forced                                   : No

Text
ID                                       : 3
Format                                   : PGS
Muxing mode                              : zlib
Codec ID                                 : S_HDMV/PGS
Codec ID/Info                            : Picture based subtitle format used on BDs/HD-DVDs
Duration                                 : 1 h 29 min
Bit rate                                 : 23.9 kb/s
Count of elements                        : 1876
Stream size                              : 15.3 MiB (0%)
Title                                    : SDH
Language                                 : German
Default                                  : No
Forced                                   : No

Menu
00:00:00.000                             : en:00:00:00.000
00:10:26.709                             : en:00:10:26.709
00:21:12.313                             : en:00:21:12.313
00:32:22.482                             : en:00:32:22.482
00:42:44.353                             : en:00:42:44.353
00:54:00.821                             : en:00:54:00.821
01:04:35.914                             : en:01:04:35.914
01:15:17.763                             : en:01:15:17.763
01:25:41.094                             : en:01:25:41.094
01:31:43.581                             : en:01:31:43.581




                                                                                                                                                                                                        
                                                                                                                                                                                                   
bf62159f06ca0643393422fece328a8f.zip (30.2 KB, 下载次数: 0)

回复

使用道具 举报

小黑屋|百度云资源论坛 |网站地图

本网站所有资源来自网络,如无意中侵犯了您的权益,请发邮件至 [email protected],立即清除相关链接

GMT+8, 2020-11-1 05:29 , Processed in 0.107702 second(s), 23 queries .

Powered by Discuz! X3.2

© 2001-2013 Comsenz Inc.

快速回复 返回顶部 返回列表