百度云资源论坛

 找回密码
 立即注册
搜索

亚瑟与梅林:圣杯骑士 Arthur.and.Merlin.Knights.of.Camelot.2020.720p.B...

[复制链接]
百度云电影 发表于 2020-9-27 10:27:20 | 显示全部楼层 |阅读模式
帖子完整标题:亚瑟与梅林:圣杯骑士 Arthur.and.Merlin.Knights.of.Camelot.2020.720p.BluRay.x264-UNVEiL 1.83GB




◎译  名 亚瑟与梅林:圣杯骑士/Artus & Merlin - Ritter von Camelot
◎片  名 Arthur & Merlin: Knights of Camelot
◎年  代 2020
◎产  地 英国
◎类  别 动作 / 历史 / 冒险
◎语  言 英语
◎上映日期 2020-07-13(英国)
◎IMDb评分  7/10 from 1170 users
◎片  长 90分钟
◎导  演 贾尔斯·阿尔德森 Giles Alderson
◎编  剧 贾尔斯·阿尔德森 Giles Alderson
◎主  演 理查德·布雷克 Richard Brake
       理查德·肖特 Richard Short
       乔·伊根 Joe Egan
       斯特拉·斯托克尔 Stella Stocker
       罗南·萨莫尔斯 Ronan Summers
       伊恩·夏普 Ian Sharp
       安东尼奥·巴斯托夫 Antonio Bustorff
       丹尼尔·舒茨曼 Daniel Schutzmann
       杰拉德·库克 Gerard Cooke
       马蒂厄·格拉斯 Matthieu Gras
       乔尔·菲利莫尔 Joel Phillimore
       珍妮弗·麦特 Jennifer Matter
       艾米丽·海格 Emily Haigh
       斯蒂芬·博姆 Stefan Boehm
       蒂姆·费林汉姆 Tim Fellingham
       詹姆士·G·纳恩 James G. Nunn
       奥利维亚·伯恩斯顿 Olivia Bernstone
       乔治亚·柯蒂斯 Georgia Curtis
       亚伦·梅 Aaron May
       萨米·米索姆 Sammy Measom
       保罗·马克·戴维斯 Paul Marc Davis

◎标  签 [歐美] | 2020

◎简  介

  讲述亚瑟王在结束与罗马帝国的战争、返回家园后,发现王位被自己的侄子窃取,为了夺回王位,他被迫向巫师梅林和圣杯骑士团寻求帮助。
Video
ID                                       : 1
Format                                   : AVC
Format/Info                              : Advanced Video Codec
Format settings                          : CABAC / 8 Ref Frames
Format settings, CABAC                   : Yes
Format settings, Reference frames        : 8 frames
Codec ID                                 : V_MPEG4/ISO/AVC
Duration                                 : 1 h 30 min
Bit rate                                 : 2 184 kb/s
Width                                    : 1 280 pixels
Height                                   : 544 pixels
Display aspect ratio                     : 2.35:1
Frame rate mode                          : Constant
Frame rate                               : 23.976 (24000/1001/189150) FPS
Color space                              : YUV
Chroma subsampling                       : 4:2:0
Bit depth                                : 8 bits
Scan type                                : Progressive
Bits/(Pixel*Frame)                       : 0.131
Stream size                              : 1.39 GiB (76%)
Writing library                          : x264 core 161 r3018 db0d417
Encoding settings                        : cabac=1 / ref=8 / deblock=1:-3:-3 / analyse=0x3:0x133 / me=umh / subme=9 / psy=1 / psy_rd=1.00:0.00 / mixed_ref=1 / me_range=16 / chroma_me=1 / trellis=2 / 8x8dct=1 / cqm=0 / deadzone=21,11 / fast_pskip=0 / chroma_qp_offset=-2 / threads=17 / lookahead_threads=1 / sliced_threads=0 / nr=0 / decimate=1 / interlaced=0 / bluray_compat=0 / constrained_intra=0 / bframes=3 / b_pyramid=2 / b_adapt=2 / b_bias=0 / direct=3 / weightb=1 / open_gop=0 / weightp=2 / keyint=250 / keyint_min=23 / scenecut=40 / intra_refresh=0 / rc_lookahead=60 / rc=crf / mbtree=1 / crf=17.0 / qcomp=0.60 / qpmin=0 / qpmax=69 / qpstep=4 / ip_ratio=1.40 / aq=1:1.00
Language                                 : English
Default                                  : Yes
Forced                                   : No

Audio
ID                                       : 2
Format                                   : AC-3
Format/Info                              : Audio Coding 3
Commercial name                          : Dolby Digital
Codec ID                                 : A_AC3
Duration                                 : 1 h 30 min
Bit rate mode                            : Constant
Bit rate                                 : 640 kb/s
Channel(s)                               : 6 channels
Channel layout                           : L R C LFE Ls Rs
Sampling rate                            : 48.0 kHz
Frame rate                               : 31.250 FPS (1536 SPF)
Compression mode                         : Lossy
Stream size                              : 416 MiB (22%)
Language                                 : English
Service kind                             : Complete Main
Default                                  : Yes
Forced                                   : No

Menu
00:00:00.000                             : en:00:00:00.000
00:10:03.686                             : en:00:10:03.686
00:21:55.064                             : en:00:21:55.064
00:32:49.551                             : en:00:32:49.551
00:44:21.909                             : en:00:44:21.909
00:55:33.163                             : en:00:55:33.163
01:06:24.772                             : en:01:06:24.772
01:12:42.358                             : en:01:12:42.358




                                                                                                                                                                                                        
                                                                                                                                                                                                   
bc66e32c106ca1ada8fb9e55bb3570e2.zip (19.05 KB, 下载次数: 0)

回复

使用道具 举报

小黑屋|百度云资源论坛 |网站地图

本网站所有资源来自网络,如无意中侵犯了您的权益,请发邮件至 [email protected],立即清除相关链接

GMT+8, 2020-10-30 04:14 , Processed in 0.114504 second(s), 23 queries .

Powered by Discuz! X3.2

© 2001-2013 Comsenz Inc.

快速回复 返回顶部 返回列表