百度云资源论坛

 找回密码
 立即注册
搜索

木乃伊复活/木乃伊重生 The.Mummy.Rebirth.2019.720p.BluRay.x264-GETiT...

[复制链接]
百度云资源 发表于 2020-9-27 10:27:20 | 显示全部楼层 |阅读模式
帖子完整标题:木乃伊复活/木乃伊重生 The.Mummy.Rebirth.2019.720p.BluRay.x264-GETiT 1.54GB




◎译  名 木乃伊复活/木乃伊重生
◎片  名 The Mummy Rebirth
◎年  代 2019
◎产  地 美国
◎类  别 动作 / 惊悚 / 恐怖 / 奇幻
◎语  言 英语
◎上映日期 2019-08-13(美国)
◎IMDb评分  2.9/10 from 637 users
◎片  长 80分钟

◎标  签 美国 | 奇幻 | 动作 | 美国电影 | 惊悚 | 恐怖

◎简  介

  Two treasure hunters uncover a sealed tomb and awaken a mummy that has waited years to come back and wipe humanity from the face of the Earth. It's a race against time as they try to stop the Mummy from wreaking havoc on the modern world.
  
  两个寻宝者揭开了一个密封的坟墓,唤醒了一位等待多年的木乃伊,将人类从地球表面抹去。这是一场与时间的竞赛,因为他们试图阻止木乃伊对现代世界造成破坏。
Video
ID                                       : 1
Format                                   : AVC
Format/Info                              : Advanced Video Codec
Format settings                          : CABAC / 8 Ref Frames
Format settings, CABAC                   : Yes
Format settings, Reference frames        : 8 frames
Codec ID                                 : V_MPEG4/ISO/AVC
Duration                                 : 1 h 20 min
Bit rate                                 : 2 107 kb/s
Width                                    : 1 280 pixels
Height                                   : 534 pixels
Display aspect ratio                     : 2.40:1
Frame rate mode                          : Constant
Frame rate                               : 23.976 (24000/1001/189150) FPS
Color space                              : YUV
Chroma subsampling                       : 4:2:0
Bit depth                                : 8 bits
Scan type                                : Progressive
Bits/(Pixel*Frame)                       : 0.129
Stream size                              : 1.18 GiB (77%)
Writing library                          : x264 core 160 r3000 33f9e14
Encoding settings                        : cabac=1 / ref=8 / deblock=1:-3:-3 / analyse=0x3:0x133 / me=umh / subme=9 / psy=1 / psy_rd=1.00:0.00 / mixed_ref=1 / me_range=16 / chroma_me=1 / trellis=2 / 8x8dct=1 / cqm=0 / deadzone=21,11 / fast_pskip=0 / chroma_qp_offset=-2 / threads=12 / lookahead_threads=1 / sliced_threads=0 / nr=0 / decimate=1 / interlaced=0 / bluray_compat=0 / constrained_intra=0 / bframes=3 / b_pyramid=2 / b_adapt=2 / b_bias=0 / direct=3 / weightb=1 / open_gop=0 / weightp=2 / keyint=250 / keyint_min=23 / scenecut=40 / intra_refresh=0 / rc_lookahead=60 / rc=crf / mbtree=1 / crf=17.0 / qcomp=0.60 / qpmin=0 / qpmax=69 / qpstep=4 / ip_ratio=1.40 / aq=1:1.00
Language                                 : English
Default                                  : Yes
Forced                                   : No

Audio
ID                                       : 2
Format                                   : AC-3
Format/Info                              : Audio Coding 3
Commercial name                          : Dolby Digital
Codec ID                                 : A_AC3
Duration                                 : 1 h 20 min
Bit rate mode                            : Constant
Bit rate                                 : 640 kb/s
Channel(s)                               : 6 channels
Channel layout                           : L R C LFE Ls Rs
Sampling rate                            : 48.0 kHz
Frame rate                               : 31.250 FPS (1536 SPF)
Compression mode                         : Lossy
Stream size                              : 368 MiB (23%)
Title                                    : ac3
Language                                 : English
Service kind                             : Complete Main
Default                                  : Yes
Forced                                   : No

Menu
00:00:00.000                             : en:00:00:00.000
00:15:11.994                             : en:00:15:11.994
00:29:48.161                             : en:00:29:48.161
00:39:16.062                             : en:00:39:16.062
00:49:06.819                             : en:00:49:06.819
00:55:36.500                             : en:00:55:36.500
01:05:37.809                             : en:01:05:37.809
01:16:01.390                             : en:01:16:01.390




                                                                                                                                                                                                        
                                                                                                                                                                                                   
47a1d528fef27fb8ae263a56920bc375.zip (16.11 KB, 下载次数: 0)

回复

使用道具 举报

小黑屋|百度云资源论坛 |网站地图

本网站所有资源来自网络,如无意中侵犯了您的权益,请发邮件至 [email protected],立即清除相关链接

GMT+8, 2020-10-30 04:38 , Processed in 0.106130 second(s), 23 queries .

Powered by Discuz! X3.2

© 2001-2013 Comsenz Inc.

快速回复 返回顶部 返回列表