百度云资源论坛

 找回密码
 立即注册
搜索

碰撞地球/星地大碰撞 Collision.Earth.2020.720p.BluRay.x264-GETiT 3.25GB

[复制链接]
百度云资源 发表于 2020-9-27 10:27:20 | 显示全部楼层 |阅读模式
帖子完整标题:碰撞地球/星地大碰撞 Collision.Earth.2020.720p.BluRay.x264-GETiT 3.25GB




◎译  名 碰撞地球/星地大碰撞
◎片  名 Collision Earth
◎年  代 2020
◎产  地 美国
◎类  别 动作 / 科幻 / 冒险 / 灾难
◎语  言 英语
◎上映日期 2020-03-08(英国) / 2020-04-28(美国)
◎IMDb评分  2.2/10 from 308 users
◎片  长 84分钟
◎编  剧 乔伊·罗切 Joey Roche
◎主  演 埃里克·罗伯茨 Eric Roberts
       凯特·沃森 Kate Watson
       约瑟夫·迈克尔·哈里斯 Joseph Michael Harris
       乔纳森·穆迪 Jonathan Moody
       John Morrisey
       Joe Filippone

◎标  签 玄幻 | 魔幻 | [歐美]

◎简  介

  一颗巨型小行星威胁说,在旨在阻止撞击的军事协议失败后,它有可能摧毁地球。
Video
ID                                       : 1
Format                                   : AVC
Format/Info                              : Advanced Video Codec
Format settings                          : CABAC / 8 Ref Frames
Format settings, CABAC                   : Yes
Format settings, Reference frames        : 8 frames
Codec ID                                 : V_MPEG4/ISO/AVC
Duration                                 : 1 h 24 min
Bit rate                                 : 4 882 kb/s
Width                                    : 1 280 pixels
Height                                   : 720 pixels
Display aspect ratio                     : 16:9
Frame rate mode                          : Constant
Frame rate                               : 23.976 (24000/1001/189150) FPS
Color space                              : YUV
Chroma subsampling                       : 4:2:0
Bit depth                                : 8 bits
Scan type                                : Progressive
Bits/(Pixel*Frame)                       : 0.221
Stream size                              : 2.87 GiB (88%)
Writing library                          : x264 core 161 r3018 db0d417
Encoding settings                        : cabac=1 / ref=8 / deblock=1:-3:-3 / analyse=0x3:0x133 / me=umh / subme=9 / psy=1 / psy_rd=1.00:0.00 / mixed_ref=1 / me_range=16 / chroma_me=1 / trellis=2 / 8x8dct=1 / cqm=0 / deadzone=21,11 / fast_pskip=1 / chroma_qp_offset=-2 / threads=18 / lookahead_threads=1 / sliced_threads=0 / nr=0 / decimate=1 / interlaced=0 / bluray_compat=0 / constrained_intra=0 / bframes=3 / b_pyramid=2 / b_adapt=2 / b_bias=0 / direct=3 / weightb=1 / open_gop=0 / weightp=2 / keyint=250 / keyint_min=23 / scenecut=40 / intra_refresh=0 / rc_lookahead=60 / rc=crf / mbtree=1 / crf=17.0 / qcomp=0.60 / qpmin=0 / qpmax=69 / qpstep=4 / ip_ratio=1.40 / aq=3:0.80
Language                                 : English
Default                                  : Yes
Forced                                   : No
Color range                              : Limited
Matrix coefficients                      : BT.709

Audio
ID                                       : 2
Format                                   : AC-3
Format/Info                              : Audio Coding 3
Commercial name                          : Dolby Digital
Codec ID                                 : A_AC3
Duration                                 : 1 h 24 min
Bit rate mode                            : Constant
Bit rate                                 : 640 kb/s
Channel(s)                               : 6 channels
Channel layout                           : L R C LFE Ls Rs
Sampling rate                            : 48.0 kHz
Frame rate                               : 31.250 FPS (1536 SPF)
Compression mode                         : Lossy
Stream size                              : 385 MiB (12%)
Title                                    : ac3
Language                                 : English
Service kind                             : Complete Main
Default                                  : Yes
Forced                                   : No

Menu
00:00:00.000                             : en:00:00:00.000
00:08:56.745                             : en:00:08:56.745
00:18:20.975                             : en:00:18:20.975
00:29:32.813                             : en:00:29:32.813
00:37:53.438                             : en:00:37:53.438
00:49:36.098                             : en:00:49:36.098
00:56:57.998                             : en:00:56:57.998
01:10:52.415                             : en:01:10:52.415




                                                                                                                                                                                                    ccde831fcf20949aafb2199f75ab90c0.zip (33.16 KB, 下载次数: 0)

回复

使用道具 举报

小黑屋|百度云资源论坛 |网站地图

本网站所有资源来自网络,如无意中侵犯了您的权益,请发邮件至 [email protected],立即清除相关链接

GMT+8, 2020-10-30 03:49 , Processed in 0.119459 second(s), 23 queries .

Powered by Discuz! X3.2

© 2001-2013 Comsenz Inc.

快速回复 返回顶部 返回列表