百度云资源论坛

 找回密码
 立即注册
搜索

葉問外傳:張天志 Master.Z.Ip.Man.Legacy.2018.CHINESE.1080p.BluRay.x264....

[复制链接]
百度云资源 发表于 前天 09:46 | 显示全部楼层 |阅读模式
帖子完整标题:葉問外傳:張天志 Master.Z.Ip.Man.Legacy.2018.CHINESE.1080p.BluRay.x264.DTS-HD.MA.7.1-CHD 11.41GB




◎译  名 叶问外传:张天志 / IP Man Side Story: Cheung Tin Chi / Master Z: Ip Man Legacy / 叶问外传 / 叶问系列之张天志 / 张天志 / 张天志传
◎片  名 葉問外傳:張天志
◎年  代 2018
◎产  地 中国大陆 / 中国香港
◎类  别 剧情 / 动作 / 犯罪
◎语  言 汉语普通话 / 粤语 / 英语
◎上映日期 2018-10-13(釜山电影节) / 2018-12-21(中国大陆)
◎片  长 107分钟
◎导  演 袁和平 Woo-ping Yuen
◎编  剧 黄子桓 Edmond Wong / 陈大利 Tai-lee Chan
◎主  演 张晋 Max Zhang
       戴夫·巴蒂斯塔 Dave Bautista
       柳岩 Yan Liu
       杨紫琼 Michelle Yeoh
       托尼·贾 Tony Jaa
       郑嘉颖 Kevin Cheng
       周秀娜 Chrissie Chaw
       谭耀文 Patrick Tam
       释彦能 Xingyu Shi
       姜皓文 Philip Keung Ho-Man
       栢天男 Adam Pak
       元华 Wah Yuen


◎标  签 动作 | 功夫 | 香港 | 叶问外传张天志 | 武侠 | 中国 | 2018 | 剧情

◎简  介   

  作为《叶问》系列影片,电影《叶问外传:张天志》延续了《叶问3》的故事,讲述了同为咏春传人的张天志在比武惜败叶问后,决意放下功夫、远离江湖纷争,但面对接踵而至的连番挑衅,面对家国大义遭受的恶意侵犯,决定重拾咏春惩戒毒贩、“以武之道”捍卫民族道义尊严的故事。

◎获奖情况  

  第55届台北金马影展(2018)
  金马奖 最佳动作设计(提名) 袁信义

  第38届香港电影金像奖(2019)
  最佳动作设计(提名) 袁信义
Video
ID                                       : 1
Format                                   : AVC
Format/Info                              : Advanced Video Codec
Format settings                          : CABAC / 4 Ref Frames
Format settings, CABAC                   : Yes
Format settings, ReFrames                : 4 frames
Codec ID                                 : V_MPEG4/ISO/AVC
Duration                                 : 1 h 47 min
Bit rate                                 : 11.0 Mb/s
Width                                    : 1 920 pixels
Height                                   : 858 pixels
Display aspect ratio                     : 2.25:1
Frame rate mode                          : Constant
Frame rate                               : 24.000 FPS
Color space                              : YUV
Chroma subsampling                       : 4:2:0
Bit depth                                : 8 bits
Scan type                                : Progressive
Bits/(Pixel*Frame)                       : 0.279
Stream size                              : 8.29 GiB (73%)
Title                                    : Master.Z.Ip.Man.Legacy.2018.CHINESE.1080p.BluRay.x264.DTS-HD.MA.7.1-CHD
Writing library                          : x264 core 155 r2867+74 66b5600 t_mod_Custom_2
Encoding settings                        : cabac=1 / ref=4 / deblock=1:-3:-3 / analyse=0x3:0x133 / me=umh / subme=10 / psy=1 / fade_compensate=0.00 / psy_rd=0.95:0.10 / mixed_ref=1 / me_range=48 / chroma_me=1 / trellis=2 / 8x8dct=1 / cqm=0 / deadzone=21,11 / fast_pskip=0 / chroma_qp_offset=-4 / threads=18 / lookahead_threads=3 / sliced_threads=0 / nr=0 / decimate=1 / interlaced=0 / bluray_compat=0 / constrained_intra=0 / fgo=0 / bframes=8 / b_pyramid=2 / b_adapt=2 / b_bias=0 / direct=3 / weightb=1 / open_gop=0 / weightp=2 / keyint=250 / keyint_min=24 / scenecut=40 / intra_refresh=0 / rc_lookahead=60 / rc=crf / mbtree=0 / crf=19.0000 / qcomp=0.70 / qpmin=0:0:0 / qpmax=69:69:69 / qpstep=4 / vbv_maxrate=35000 / vbv_bufsize=35000 / crf_max=0.0 / nal_hrd=none / filler=0 / ip_ratio=1.40 / pb_ratio=1.30 / aq=3:1.00 / aq-sensitivity=10.00 / aq-factor=1.00:1.00:1.00 / aq2=0 / aq3=2:[0.50:0.50]:[0.50:0.50]:[0.50:0.50]:[0.50:0.50] / aq3-sensitivity=10.00 / aq3-factor=[1.00:1.00]:[1.00:1.00]:[1.00:1.00] / aq3-boundary=192:64:24
Language                                 : Chinese
Default                                  : Yes
Forced                                   : No

Audio
ID                                       : 2
Format                                   : DTS XLL
Format/Info                              : Digital Theater Systems
Commercial name                          : DTS-HD Master Audio
Codec ID                                 : A_DTS
Duration                                 : 1 h 47 min
Bit rate mode                            : Variable
Bit rate                                 : 4 129 kb/s
Channel(s)                               : 8 channels
Channel layout                           : C L R LFE Lb Rb Lss Rss
Sampling rate                            : 48.0 kHz
Frame rate                               : 93.750 FPS (512 SPF)
Bit depth                                : 24 bits
Compression mode                         : Lossless
Stream size                              : 3.10 GiB (27%)
Title                                    : Master.Z.Ip.Man.Legacy.2018.CHINESE.1080p.BluRay.x264.DTS-HD.MA.7.1-CHD
Language                                 : Chinese
Default                                  : Yes
Forced                                   : No

Text #1
ID                                       : 3
Format                                   : UTF-8
Codec ID                                 : S_TEXT/UTF8
Codec ID/Info                            : UTF-8 Plain Text
Duration                                 : 1 h 44 min
Bit rate                                 : 36 b/s
Count of elements                        : 1293
Stream size                              : 28.1 KiB (0%)
Title                                    : English-SRT
Language                                 : English
Default                                  : Yes
Forced                                   : Yes

Text #2
ID                                       : 4
Format                                   : PGS
Muxing mode                              : zlib
Codec ID                                 : S_HDMV/PGS
Codec ID/Info                            : Picture based subtitle format used on BDs/HD-DVDs
Duration                                 : 1 h 44 min
Bit rate                                 : 24.5 kb/s
Count of elements                        : 2165
Stream size                              : 18.3 MiB (0%)
Title                                    : English-PGS
Language                                 : English
Default                                  : No
Forced                                   : No

Text #3
ID                                       : 5
Format                                   : PGS
Muxing mode                              : zlib
Codec ID                                 : S_HDMV/PGS
Codec ID/Info                            : Picture based subtitle format used on BDs/HD-DVDs
Duration                                 : 1 h 44 min
Bit rate                                 : 22.0 kb/s
Count of elements                        : 2165
Stream size                              : 16.4 MiB (0%)
Title                                    : Chinese-PGS
Language                                 : Chinese
Default                                  : No
Forced                                   : No

Menu
00:00:00.000                             : en:Chapter 01
00:05:47.000                             : en:Chapter 02
00:11:29.833                             : en:Chapter 03
00:15:46.375                             : en:Chapter 04
00:19:10.416                             : en:Chapter 05
00:28:58.583                             : en:Chapter 06
00:33:33.250                             : en:Chapter 07
00:38:34.416                             : en:Chapter 08
00:48:14.708                             : en:Chapter 09
00:53:38.833                             : en:Chapter 10
01:00:10.041                             : en:Chapter 11
01:04:38.458                             : en:Chapter 12
01:09:35.583                             : en:Chapter 13
01:19:20.500                             : en:Chapter 14
01:22:55.916                             : en:Chapter 15
01:27:42.750                             : en:Chapter 16
01:34:36.541                             : en:Chapter 17
01:42:54.666                             : en:Chapter 18




                                                                                                                                                                                                        


53bc478a03df32b4d5ef4734102dce4c.zip (58.61 KB, 下载次数: 0)

回复

使用道具 举报

小黑屋|百度云资源论坛 |网站地图

本网站所有资源来自网络,如无意中侵犯了您的权益,请发邮件至 [email protected],立即清除相关链接

GMT+8, 2020-8-4 07:57 , Processed in 0.096046 second(s), 23 queries .

Powered by Discuz! X3.2

© 2001-2013 Comsenz Inc.

快速回复 返回顶部 返回列表