百度云资源论坛

 找回密码
 立即注册
搜索

綁靈 Blinding.Souls.2018.CHINESE.1080p.BluRay.x264.DTS-CHD 9.87GB

[复制链接]
百度云资源 发表于 前天 09:46 | 显示全部楼层 |阅读模式
帖子完整标题:綁靈 Blinding.Souls.2018.CHINESE.1080p.BluRay.x264.DTS-CHD 9.87GB




◎译  名 绑灵 / Blinding Souls
◎片  名 綁靈
◎年  代 2019
◎产  地 中国香港 / 中国台湾
◎类  别 恐怖
◎语  言 粤语 / 汉语普通话
◎上映日期 2019-09-05(中国香港)
◎IMDb评分  5.6/10 from 99 users
◎片  长 89分钟
◎导  演 陈鹏振 Pang-chun Chan
◎编  剧 陈鹏振 Pang-chun Chan / 黄超虹
◎主  演 惠英红 Kara Wai Ying Hung
       陈家乐 Carlos Chan
       岑日珈 Angie Shum
       盛君 Janelle Sing
       曹佑宁 Yu-ning Tsao
       黄瀞怡 Albee Huang
       麦家瑜 Keeva Mak
       袁祥仁 Cheung-Yan Yuen
       潘绍聪 Edmund Poon Siu-Chung


◎标  签 恐怖 | 香港 | 惠英红 | 台湾 | 惊悚 | 2019 | 电影 | 2016

◎简  介   

  舊生何梓峯(曹佑寧 飾)帶著四位大學同學來到即將要被殺校的母校德肓書院懷念一翻。該學府曾被日軍佔領為軍用實驗室,歷年也流傳著許多可怕的靈異事件。
  羅校長(袁祥仁 飾)和方老師(小薰飾)分別帶著他們在校內各處參觀並解述歷史。眾人來到校內博物館,看到戰時日軍資料時均感到無比興奮。他們更在舊存刊物中,看到一本舊生日記,竟記錄了過往舊生曾遇到的種種靈異事件,裡面更提到一宗學生神秘失蹤事件,究竟內裡隱藏了什麼秘密?他們會否也遇上相同的靈異事件?
Video
ID                                       : 1
Format                                   : AVC
Format/Info                              : Advanced Video Codec
Format settings                          : CABAC / 4 Ref Frames
Format settings, CABAC                   : Yes
Format settings, Reference frames        : 4 frames
Codec ID                                 : V_MPEG4/ISO/AVC
Duration                                 : 1 h 28 min
Bit rate                                 : 14.4 Mb/s
Width                                    : 1 920 pixels
Height                                   : 804 pixels
Display aspect ratio                     : 2.40:1
Frame rate mode                          : Constant
Frame rate                               : 24.000 FPS
Color space                              : YUV
Chroma subsampling                       : 4:2:0
Bit depth                                : 8 bits
Scan type                                : Progressive
Bits/(Pixel*Frame)                       : 0.390
Stream size                              : 8.93 GiB (91%)
Writing library                          : x264 core 157 r2867+150 7e91e0e t_mod_Custom_2
Encoding settings                        : cabac=1 / ref=4 / deblock=1:-3:-3 / analyse=0x3:0x133 / me=umh / subme=11 / psy=1 / fade_compensate=0.00 / psy_rd=0.90:0.10 / mixed_ref=1 / me_range=64 / chroma_me=1 / trellis=2 / 8x8dct=1 / cqm=0 / deadzone=21,11 / fast_pskip=0 / chroma_qp_offset=-4 / threads=25 / lookahead_threads=4 / sliced_threads=0 / nr=0 / decimate=1 / interlaced=0 / bluray_compat=0 / constrained_intra=0 / fgo=0 / bframes=8 / b_pyramid=2 / b_adapt=2 / b_bias=0 / direct=3 / weightb=1 / open_gop=0 / weightp=2 / keyint=250 / keyint_min=24 / scenecut=40 / intra_refresh=0 / rc_lookahead=60 / rc=crf / mbtree=0 / crf=17.0000 / qcomp=0.70 / qpmin=0:0:0 / qpmax=69:69:69 / qpstep=4 / vbv_maxrate=35000 / vbv_bufsize=35000 / crf_max=0.0 / nal_hrd=none / filler=0 / ip_ratio=1.40 / pb_ratio=1.30 / aq=3:1.00 / aq-sensitivity=10.00 / aq-factor=1.00:1.00:1.00 / aq2=0 / aq3=0
Language                                 : Chinese
Default                                  : Yes
Forced                                   : No

Audio
ID                                       : 2
Format                                   : DTS
Format/Info                              : Digital Theater Systems
Codec ID                                 : A_DTS
Duration                                 : 1 h 28 min
Bit rate mode                            : Constant
Bit rate                                 : 1 509 kb/s
Channel(s)                               : 6 channels
Channel layout                           : C L R Ls Rs LFE
Sampling rate                            : 48.0 kHz
Frame rate                               : 93.750 FPS (512 SPF)
Bit depth                                : 16 bits
Compression mode                         : Lossy
Stream size                              : 956 MiB (9%)
Language                                 : Chinese
Default                                  : Yes
Forced                                   : No

Text
ID                                       : 3
Format                                   : UTF-8
Codec ID                                 : S_TEXT/UTF8
Codec ID/Info                            : UTF-8 Plain Text
Duration                                 : 1 h 19 min
Bit rate                                 : 53 b/s
Count of elements                        : 1198
Stream size                              : 31.0 KiB (0%)
Language                                 : English
Default                                  : Yes
Forced                                   : No

Menu
00:00:00.000                             : en:绗?01 绔?
00:07:49.333                             : en:绗?02 绔?
00:13:30.042                             : en:绗?03 绔?
00:20:21.542                             : en:绗?04 绔?
00:29:00.208                             : en:绗?05 绔?
00:36:35.042                             : en:绗?06 绔?
00:44:01.167                             : en:绗?07 绔?
00:51:52.250                             : en:绗?08 绔?
00:58:43.542                             : en:绗?09 绔?
01:04:54.083                             : en:绗?10 绔?
01:13:13.917                             : en:绗?11 绔?
01:22:29.042                             : en:绗?12 绔?




                                                                                                                                                                                                        


48597828c81bc118c710fac251bd4f1d.zip (50.01 KB, 下载次数: 0)

回复

使用道具 举报

小黑屋|百度云资源论坛 |网站地图

本网站所有资源来自网络,如无意中侵犯了您的权益,请发邮件至 [email protected],立即清除相关链接

GMT+8, 2020-8-4 07:18 , Processed in 0.111437 second(s), 23 queries .

Powered by Discuz! X3.2

© 2001-2013 Comsenz Inc.

快速回复 返回顶部 返回列表