百度云资源论坛

 找回密码
 立即注册
搜索

三色堇 Moffie.2019.720p.BluRay.x264-SPOOKS 6.05GB

[复制链接]
帖子完整标题:三色堇 Moffie.2019.720p.BluRay.x264-SPOOKS 6.05GB




◎译  名 三色堇 / Moffie / Pansy
◎片  名 Moffie
◎年  代 2019
◎产  地 南非 / 英国
◎类  别 剧情 / 同性
◎语  言 南非语 / 英语
◎上映日期 2019-09-04(威尼斯电影节)
◎IMDb评分  7.2/10 from 449 users
◎片  长 99分钟
◎导  演 奥利弗·赫曼纽斯 Oliver Hermanus
◎编  剧 奥利弗·赫曼纽斯 Oliver Hermanus / Jack Sidey
◎主  演 Kai Luke Brummer
       Ryan de Villiers
       Matthew Vey
       Stefan Vermaak
       Hilton Pelser
       Wynand Ferreira
       Hendrik Nieuwoudt
       Shaun Chad Smit
       Rikus Terblanche
       Matt Ashwell
       Ludwig Baxter
       Philippa Berrington-Blew
       Dijan Botha
       Mitchell Christy
       Jan Combrink
       马克·埃尔德金 Mark Elderkin


◎标  签 南非 | 同性 | 英国 | 2019 | LGBT | 剧情 | 南非电影 | 威尼斯电影节

◎简  介   

  在南非,Moffie是对同性恋者的贬义词,片中,男主尼克16岁时去南非服兵役。从小就与众不同的他,在军营中发现了自己的秘密。
  在同性恋就是犯罪的国度,一旦做出选择,就无法回头。封闭的军营伴随着暴力、种族歧视、男人至上的理念,如三色堇般美丽的爱恋,要如何安放?

◎获奖情况  

  第76届威尼斯电影节(2019)
  地平线单元奖 最佳影片(提名) 奥利弗·赫曼纽斯

  第22届英国独立电影奖(2019)
  最佳导演(提名) 奥利弗·赫曼纽斯
  制片突破(提名)
  最佳摄影(提名)
Video
ID                                       : 1
Format                                   : AVC
Format/Info                              : Advanced Video Codec
Format settings                          : CABAC / 10 Ref Frames
Format settings, CABAC                   : Yes
Format settings, Reference frames        : 10 frames
Codec ID                                 : V_MPEG4/ISO/AVC
Duration                                 : 1 h 43 min
Bit rate                                 : 7 688 kb/s
Width                                    : 1 064 pixels
Height                                   : 720 pixels
Display aspect ratio                     : 3:2
Frame rate mode                          : Constant
Frame rate                               : 24.000 FPS
Color space                              : YUV
Chroma subsampling                       : 4:2:0
Bit depth                                : 8 bits
Scan type                                : Progressive
Bits/(Pixel*Frame)                       : 0.418
Stream size                              : 5.58 GiB (92%)
Writing library                          : x264 core 161 r3018 db0d417
Encoding settings                        : cabac=1 / ref=10 / deblock=1:-3:-3 / analyse=0x3:0x133 / me=umh / subme=10 / psy=1 / psy_rd=1.20:0.00 / mixed_ref=1 / me_range=24 / chroma_me=1 / trellis=2 / 8x8dct=1 / cqm=0 / deadzone=21,11 / fast_pskip=0 / chroma_qp_offset=-2 / threads=22 / lookahead_threads=3 / sliced_threads=0 / nr=0 / decimate=0 / interlaced=0 / bluray_compat=0 / constrained_intra=0 / bframes=8 / b_pyramid=2 / b_adapt=2 / b_bias=0 / direct=3 / weightb=1 / open_gop=0 / weightp=2 / keyint=250 / keyint_min=24 / scenecut=40 / intra_refresh=0 / rc=crf / mbtree=0 / crf=16.5 / qcomp=0.60 / qpmin=0 / qpmax=69 / qpstep=4 / ip_ratio=1.40 / pb_ratio=1.30 / aq=3:0.90
Default                                  : Yes
Forced                                   : No
Color range                              : Limited
Matrix coefficients                      : BT.709

Audio
ID                                       : 2
Format                                   : AC-3
Format/Info                              : Audio Coding 3
Commercial name                          : Dolby Digital
Codec ID                                 : A_AC3
Duration                                 : 1 h 43 min
Bit rate mode                            : Constant
Bit rate                                 : 640 kb/s
Channel(s)                               : 6 channels
Channel layout                           : L R C LFE Ls Rs
Sampling rate                            : 48.0 kHz
Frame rate                               : 31.250 FPS (1536 SPF)
Bit depth                                : 16 bits
Compression mode                         : Lossy
Stream size                              : 476 MiB (8%)
Language                                 : English
Service kind                             : Complete Main
Default                                  : Yes
Forced                                   : No

Menu
00:00:00.000                             : en:Chapter 01
00:06:22.542                             : en:Chapter 02
00:13:27.875                             : en:Chapter 03
00:18:18.167                             : en:Chapter 04
00:25:32.833                             : en:Chapter 05
00:33:15.625                             : en:Chapter 06
00:52:02.000                             : en:Chapter 07
01:03:48.292                             : en:Chapter 08
01:11:54.583                             : en:Chapter 09
01:20:41.500                             : en:Chapter 10
01:31:35.958                             : en:Chapter 11
01:40:15.333                             : en:Chapter 12




                                                                                                                                                                                                        
                                                                                                                                                                                                                                          
2f1fa2bc44cbf72ce305f58da4ef7ac1.zip (31.69 KB, 下载次数: 0)

回复

使用道具 举报

小黑屋|百度云资源论坛 |网站地图

本网站所有资源来自网络,如无意中侵犯了您的权益,请发邮件至 [email protected],立即清除相关链接

GMT+8, 2020-8-7 05:52 , Processed in 0.263669 second(s), 23 queries .

Powered by Discuz! X3.2

© 2001-2013 Comsenz Inc.

快速回复 返回顶部 返回列表