百度云资源论坛

 找回密码
 立即注册
搜索

我不好惹/贝基:战斗女孩 Becky.2020.720p.BluRay.x264-WUTANG 2.53GB

[复制链接]
帖子完整标题:我不好惹/贝基:战斗女孩 Becky.2020.720p.BluRay.x264-WUTANG 2.53GB




◎译  名 我不好惹 / 贝基:战斗女孩
◎片  名 Becky
◎年  代 2020
◎产  地 美国
◎类  别 动作 / 惊悚
◎语  言 英语
◎上映日期 2020-06-05(美国)
◎IMDb评分  5.7/10 from 5282 users
◎片  长 100分钟
◎导  演 乔纳森·米洛特 Jonathan Milott / 加里·穆利昂 Cary Murnion
◎编  剧 Nick Morris / Lane Skye / Ruckus Skye
◎主  演 露露·威尔逊 Lulu Wilson
       乔尔·麦克哈尔 Joel McHale
       凯文·詹姆斯 Kevin James
       阿曼达·布鲁盖尔 Amanda Brugel
       罗伯特·梅耶 Robert Maillet
       瑞安·麦克唐纳德 Ryan McDonald
       盖奇·格雷厄姆·阿布斯诺特 Gage Graham-Arbuthnot
       约翰·D·希克曼 John D. Hickman
       Chandra Michaels
       James McDougall
       Isaiah Rockcliffe
       Mike Dara
       Andrew Siwik
       Charles Boyland
       Markus Radan


◎标  签 血腥 | 复仇 | 犯罪 | 美国 | 惊悚 | 2020 | 动作 | 美国电影

◎简  介   

  13岁小女孩反杀恶人。全家来到林中小屋想改善家庭关系,被逃狱囚犯上门找麻烦。而坏人虽残忍,却被女孩Becky教训……
Video
ID                                       : 1
Format                                   : AVC
Format/Info                              : Advanced Video Codec
Format settings                          : CABAC / 8 Ref Frames
Format settings, CABAC                   : Yes
Format settings, Reference frames        : 8 frames
Codec ID                                 : V_MPEG4/ISO/AVC
Duration                                 : 1 h 33 min
Bit rate                                 : 3 429 kb/s
Width                                    : 1 280 pixels
Height                                   : 536 pixels
Display aspect ratio                     : 2.40:1
Frame rate mode                          : Constant
Frame rate                               : 23.976 (24000/1001/189150) FPS
Color space                              : YUV
Chroma subsampling                       : 4:2:0
Bit depth                                : 8 bits
Scan type                                : Progressive
Bits/(Pixel*Frame)                       : 0.208
Stream size                              : 2.23 GiB (88%)
Writing library                          : x264 core 161 r3018 db0d417
Encoding settings                        : cabac=1 / ref=8 / deblock=1:-3:-3 / analyse=0x3:0x133 / me=umh / subme=9 / psy=1 / psy_rd=1.00:0.00 / mixed_ref=1 / me_range=32 / chroma_me=1 / trellis=2 / 8x8dct=1 / cqm=0 / deadzone=21,11 / fast_pskip=0 / chroma_qp_offset=-2 / threads=17 / lookahead_threads=2 / sliced_threads=0 / nr=0 / decimate=0 / interlaced=0 / bluray_compat=0 / constrained_intra=0 / bframes=9 / b_pyramid=2 / b_adapt=2 / b_bias=0 / direct=3 / weightb=1 / open_gop=0 / weightp=2 / keyint=250 / keyint_min=23 / scenecut=40 / intra_refresh=0 / rc=crf / mbtree=0 / crf=16.5 / qcomp=0.60 / qpmin=0 / qpmax=69 / qpstep=4 / ip_ratio=1.40 / pb_ratio=1.30 / aq=3:0.88
Default                                  : Yes
Forced                                   : No
Color range                              : Limited
Matrix coefficients                      : BT.709

Audio
ID                                       : 2
Format                                   : AC-3
Format/Info                              : Audio Coding 3
Commercial name                          : Dolby Digital
Codec ID                                 : A_AC3
Duration                                 : 1 h 33 min
Bit rate mode                            : Constant
Bit rate                                 : 448 kb/s
Channel(s)                               : 6 channels
Channel layout                           : L R C LFE Ls Rs
Sampling rate                            : 48.0 kHz
Frame rate                               : 31.250 FPS (1536 SPF)
Bit depth                                : 16 bits
Compression mode                         : Lossy
Stream size                              : 298 MiB (12%)
Title                                    : English
Language                                 : English
Service kind                             : Complete Main
Default                                  : No
Forced                                   : No

Text
ID                                       : 3
Format                                   : PGS
Muxing mode                              : zlib
Codec ID                                 : S_HDMV/PGS
Codec ID/Info                            : Picture based subtitle format used on BDs/HD-DVDs
Duration                                 : 1 h 33 min
Bit rate                                 : 18.2 kb/s
Count of elements                        : 2445
Stream size                              : 12.1 MiB (0%)
Title                                    : English SDH
Language                                 : English
Default                                  : No
Forced                                   : No

Menu
00:00:00.000                             : en:Chapter 01
00:05:43.844                             : en:Chapter 02
00:10:33.675                             : en:Chapter 03
00:17:48.818                             : en:Chapter 04
00:23:46.842                             : en:Chapter 05
00:30:08.390                             : en:Chapter 06
00:35:50.857                             : en:Chapter 07
00:42:34.677                             : en:Chapter 08
00:49:33.929                             : en:Chapter 09
00:55:20.484                             : en:Chapter 10
01:00:41.721                             : en:Chapter 11
01:06:40.914                             : en:Chapter 12
01:11:17.273                             : en:Chapter 13
01:15:17.263                             : en:Chapter 14
01:19:13.165                             : en:Chapter 15
01:24:17.344                             : en:Chapter 16




                                                                                                                                                                                                        
                                                                                                                                                                                                                                                                                                                                                                                                                                                                                                                                                                                                                                                                                                                              
18e1bfe334bd217096c5f5a8897a7083.zip (25.92 KB, 下载次数: 0)

回复

使用道具 举报

小黑屋|百度云资源论坛 |网站地图

本网站所有资源来自网络,如无意中侵犯了您的权益,请发邮件至 [email protected],立即清除相关链接

GMT+8, 2020-8-7 05:13 , Processed in 0.110689 second(s), 23 queries .

Powered by Discuz! X3.2

© 2001-2013 Comsenz Inc.

快速回复 返回顶部 返回列表