百度云资源论坛

 找回密码
 立即注册
搜索

[BD-4K] 放射性物质/以光之名 Radioactive.2019.HDR.2160p.WEB.h265-WATCHER 11.80GB

[复制链接]
帖子完整标题:放射性物质/以光之名 Radioactive.2019.HDR.2160p.WEB.h265-WATCHER 11.80GB




◎译  名 放射性物质 / 以光之名 / 居礼夫人:一代科研传奇(港) / 居礼夫人:放射永恒(台) / 放射性
◎片  名 Radioactive
◎年  代 2019
◎产  地 英国 / 匈牙利
◎类  别 剧情 / 传记
◎语  言 英语
◎上映日期 2019-09-14(多伦多电影节) / 2020-03-20(英国)
◎片  长 109分钟
◎导  演 玛嘉·莎塔琵 Marjane Satrapi
◎编  剧 杰克·索恩 Jack Thorne / Lauren Redniss
◎主  演 裴淳华 Rosamund Pike
       萨姆·赖利 Sam Riley
       安雅·泰勒-乔伊 Anya Taylor-Joy
       阿奈林·巴纳德 Aneurin Barnard
       珊·布鲁克 Sian Brooke
       凯瑟琳·帕金森 Katherine Parkinson
       西蒙·拉塞尔·比尔 Simon Russell Beale
       蒂姆·伍德沃德 Tim Woodward
       乔纳森·阿里斯 Jonathan Aris
       弗兰西斯卡·托朗西斯科 Franciska T?r?csik
       克里·约翰逊 Corey Johnson
       爱德华·戴维斯 Edward Davis
       迪米特里·格里特萨斯 Demetri Goritsas
       乔治娜·里奇 Georgina Rich
       理查德·皮泼 Richard Pepple
       印迪卡·沃森 Indica Watson
       迈克尔·古尔德 Michael Gould
       Mark C. Phelan
       Mirjam Novak
       Péter Fancsikai
       Alex Bartram
       Drew Jacoby
       Cara Bossom


◎标  签 传记 | 裴淳华 | 女性 | 剧情 | 2019 | 英国 | 美国 | 电影

◎简  介   

  基于Lauren Redniss所著小说《Marie & Pierre Curie: A Tale of Love and Fallout》,聚焦玛丽·居里和皮埃尔·居里夫妻对科学的探索和两人之间的关系。
Video
ID                                       : 3
Format                                   : HEVC
Format/Info                              : High Efficiency Video Coding
HDR format                               : SMPTE ST 2094 App 4, Version 0
Codec ID                                 : V_MPEGH/ISO/HEVC
Duration                                 : 1 h 49 min
Bit rate                                 : 14.6 Mb/s
Width                                    : 3 840 pixels
Height                                   : 1 600 pixels
Display aspect ratio                     : 2.40:1
Frame rate mode                          : Constant
Frame rate                               : 23.976 (24000/1001/189150) FPS
Standard                                 : NTSC
Color space                              : YUV
Chroma subsampling                       : 4:2:0 (Type 2)
Bit depth                                : 10 bits
Bits/(Pixel*Frame)                       : 0.099
Stream size                              : 11.2 GiB (96%)
Default                                  : Yes
Forced                                   : No
Color range                              : Limited
Color primaries                          : BT.2020
Transfer characteristics                 : PQ
Matrix coefficients                      : BT.2020 non-constant
Mastering display color primaries        : Display P3
Mastering display luminance              : min: 0.0001 cd/m2, max: 1000 cd/m2
Maximum Content Light Level              : 966 cd/m2
Maximum Frame-Average Light Level        : 383 cd/m2

Audio
ID                                       : 1
Format                                   : E-AC-3
Format/Info                              : Enhanced AC-3
Commercial name                          : Dolby Digital Plus
Codec ID                                 : A_EAC3
Duration                                 : 1 h 49 min
Bit rate mode                            : Constant
Bit rate                                 : 640 kb/s
Channel(s)                               : 6 channels
Channel layout                           : L R C LFE Ls Rs
Sampling rate                            : 48.0 kHz
Frame rate                               : 31.250 FPS (1536 SPF)
Compression mode                         : Lossy
Stream size                              : 502 MiB (4%)
Title                                    : English
Language                                 : English
Service kind                             : Complete Main
Default                                  : Yes
Forced                                   : No

Text
ID                                       : 2
Format                                   : UTF-8
Codec ID                                 : S_TEXT/UTF8
Codec ID/Info                            : UTF-8 Plain Text
Duration                                 : 1 h 40 min
Bit rate                                 : 57 b/s
Count of elements                        : 1245
Stream size                              : 42.2 KiB (0%)
Title                                    : English [SDH]
Language                                 : English
Default                                  : No
Forced                                   : No



81afe1584fb96ee6b5fa19d7bccc37cf.zip (59.71 KB, 下载次数: 0)

回复

使用道具 举报

小黑屋|百度云资源论坛 |网站地图

本网站所有资源来自网络,如无意中侵犯了您的权益,请发邮件至 [email protected],立即清除相关链接

GMT+8, 2020-8-8 10:59 , Processed in 0.098411 second(s), 23 queries .

Powered by Discuz! X3.2

© 2001-2013 Comsenz Inc.

快速回复 返回顶部 返回列表