百度云资源论坛

 找回密码
 立即注册
搜索

[BD-4K] 太空生活/高大人生 High.Life.2018.HDR.2160p.WEB.h265-WATCHER 11.65GB

[复制链接]
百度云电影 发表于 2020-7-31 08:32:11 | 显示全部楼层 |阅读模式
帖子完整标题:太空生活/高大人生 High.Life.2018.HDR.2160p.WEB.h265-WATCHER 11.65GB




◎译  名 太空生活 / 高大人生 / 黑洞迷情(台)
◎片  名 High Life
◎年  代 2018
◎产  地 德国 / 法国 / 英国 / 波兰 / 美国
◎类  别 剧情 / 科幻
◎语  言 英语
◎上映日期 2018-09-09(多伦多电影节) / 2019-04-12(美国)
◎IMDb评分  5.8/10 from 25267 users
◎片  长 113分钟
◎导  演 克莱尔·德尼 Claire Denis
◎编  剧 克莱尔·德尼 Claire Denis / 让-波尔·法尔戈 Jean-Pol Fargeau / 吉尔夫·考克斯 Geoff Cox / 尼克·莱尔德 Nick Laird
◎主  演 罗伯特·帕丁森 Robert Pattinson
       朱丽叶·比诺什 Juliette Binoche
       安德雷·本杰明 André Benjamin
       米娅·高斯 Mia Goth
       阿加塔·布泽克 Agata Buzek
       拉斯·艾丁格 Lars Eidinger
       克莱尔·陈 Claire Tran
       伊万·米切尔 Ewan Mitchell
       格洛里亚·奥比安约 Gloria Obianyo
       杰西·罗斯 Jessie Ross
       维克多·班纳杰 Victor Banerjee


◎标  签 科幻 | 法国 | 2018 | 德国 | 英国 | 冒险 | 美国 | 剧情

◎简  介   

  在一艘飞往黑洞的宇宙飞船上,一群被判死刑的罪犯被赋予太空英雄般的使命,去为地球寻找替代能源。囚犯之间的性活动被严格禁止,只能通过飞船上的"盒子"装置来缓解生理冲动。其中,Dibs博士(朱丽叶·比诺什 饰)将每个囚犯当作实验动物对待,并疯狂致力于通过人工授精来制造婴儿,然而这些实验却一直没有成功,直到她偷偷取得奉行禁欲生活的Monte(罗伯特·帕丁森 饰)的精液...

◎获奖情况  

  第66届圣塞巴斯蒂安国际电影节(2018)
  金贝壳奖(提名) 克莱尔·德尼
  费比西影评人奖 克莱尔·德尼

  第40届伦敦影评人协会奖(2020)
  年度英国/爱尔兰男演员(提名) 罗伯特·帕丁森
Video
ID                                       : 3
Format                                   : HEVC
Format/Info                              : High Efficiency Video Coding
HDR format                               : SMPTE ST 2094 App 4, Version 0
Codec ID                                 : V_MPEGH/ISO/HEVC
Duration                                 : 1 h 53 min
Bit rate                                 : 14.0 Mb/s
Width                                    : 3 840 pixels
Height                                   : 2 080 pixels
Display aspect ratio                     : 1.85:1
Frame rate mode                          : Constant
Frame rate                               : 23.976 (24000/1001/189150) FPS
Standard                                 : NTSC
Color space                              : YUV
Chroma subsampling                       : 4:2:0 (Type 2)
Bit depth                                : 10 bits
Bits/(Pixel*Frame)                       : 0.073
Stream size                              : 11.0 GiB (96%)
Default                                  : Yes
Forced                                   : No
Color range                              : Limited
Color primaries                          : BT.2020
Transfer characteristics                 : PQ
Matrix coefficients                      : BT.2020 non-constant
Mastering display color primaries        : Display P3
Mastering display luminance              : min: 0.0001 cd/m2, max: 1000 cd/m2
Maximum Content Light Level              : 1149 cd/m2
Maximum Frame-Average Light Level        : 266 cd/m2

Audio
ID                                       : 1
Format                                   : E-AC-3
Format/Info                              : Enhanced AC-3
Commercial name                          : Dolby Digital Plus
Codec ID                                 : A_EAC3
Duration                                 : 1 h 53 min
Bit rate mode                            : Constant
Bit rate                                 : 640 kb/s
Channel(s)                               : 6 channels
Channel layout                           : L R C LFE Ls Rs
Sampling rate                            : 48.0 kHz
Frame rate                               : 31.250 FPS (1536 SPF)
Compression mode                         : Lossy
Stream size                              : 518 MiB (4%)
Title                                    : English
Language                                 : English
Service kind                             : Complete Main
Default                                  : Yes
Forced                                   : No

Text
ID                                       : 2
Format                                   : UTF-8
Codec ID                                 : S_TEXT/UTF8
Codec ID/Info                            : UTF-8 Plain Text
Duration                                 : 1 h 48 min
Bit rate                                 : 23 b/s
Count of elements                        : 859
Stream size                              : 18.5 KiB (0%)
Title                                    : English [SDH]
Language                                 : English
Default                                  : No
Forced                                   : No




                                                                                                                                                                                                        
                                                                                                                                                                                                                                                                                                                                                                                                                                                                                                                                                                                                                                                                                                                              
61556c9059d5c306b75f64314bd629aa.zip (58.93 KB, 下载次数: 0)

回复

使用道具 举报

小黑屋|百度云资源论坛 |网站地图

本网站所有资源来自网络,如无意中侵犯了您的权益,请发邮件至 [email protected],立即清除相关链接

GMT+8, 2020-8-8 22:59 , Processed in 0.100816 second(s), 23 queries .

Powered by Discuz! X3.2

© 2001-2013 Comsenz Inc.

快速回复 返回顶部 返回列表