百度云资源论坛

 找回密码
 立即注册
搜索

[BD-4K] 第零军团/零号团队 Troop.Zero.2019.HDR.2160p.WEB.h265-WATCHER 10.41GB

[复制链接]
百度云电影 发表于 2020-7-31 08:32:11 | 显示全部楼层 |阅读模式
帖子完整标题:第零军团/零号团队 Troop.Zero.2019.HDR.2160p.WEB.h265-WATCHER 10.41GB




◎译  名 第零军团 / 零号团队
◎片  名 Troop Zero
◎年  代 2019
◎产  地 美国
◎类  别 剧情 / 喜剧 / 家庭
◎语  言 英语
◎上映日期 2019-02-01(圣丹斯电影节首映) / 2020-01-17(美国)
◎IMDb评分  6.9/10 from 7015 users
◎片  长 94分钟
◎导  演 伯特与伯蒂 Bert & Bertie
◎编  剧 露西·阿里巴 Lucy Alibar
◎主  演 麦肯娜·格瑞丝 Mckenna Grace
       艾莉森·珍妮 Allison Janney
       艾迪·帕特森 Edi Patterson
       维奥拉·戴维斯 Viola Davis
       吉姆·加菲根 Jim Gaffigan
       迈克·艾普斯 Mike Epps
       查理·肖特韦尔 Charlie Shotwell
       小埃里克·贝尔 Eric Bell Jr.
       格温德琳·穆兰巴 Gwendolyn Mulamba
       戈登·德克海默 Gordon Dexheimer
       Ashley Brooke
       Maureen Brennan
       Rebecca Chulew
       Johanna Colón
       Milan Ray
       Elton LeBlanc
       Kenneth Wayne Bradley


◎标  签 成长 | 儿童 | 美国 | 喜剧 | 剧情 | 麦肯娜·格瑞丝 | 2019 | 美国电影

◎简  介   

  热爱科学的小女主角(麦肯纳·格蕾丝饰演)将领导一群格格不入的孩子们参加女子童子军大赛,赢得才艺表演秀后录制美国太空总署的金唱片,一群小朋友也从过程中培养出长达一辈子的深刻友谊。
Video
ID                                       : 27
Format                                   : HEVC
Format/Info                              : High Efficiency Video Coding
HDR format                               : SMPTE ST 2094 App 4, Version 0
Codec ID                                 : V_MPEGH/ISO/HEVC
Duration                                 : 1 h 37 min
Bit rate                                 : 14.5 Mb/s
Width                                    : 3 840 pixels
Height                                   : 1 600 pixels
Display aspect ratio                     : 2.40:1
Frame rate mode                          : Constant
Frame rate                               : 23.976 (24000/1001/189150) FPS
Standard                                 : NTSC
Color space                              : YUV
Chroma subsampling                       : 4:2:0 (Type 2)
Bit depth                                : 10 bits
Bits/(Pixel*Frame)                       : 0.098
Stream size                              : 9.86 GiB (96%)
Default                                  : Yes
Forced                                   : No
Color range                              : Limited
Color primaries                          : BT.2020
Transfer characteristics                 : PQ
Matrix coefficients                      : BT.2020 non-constant
Mastering display color primaries        : Display P3
Mastering display luminance              : min: 0.0001 cd/m2, max: 1000 cd/m2
Maximum Content Light Level              : 708 cd/m2
Maximum Frame-Average Light Level        : 135 cd/m2

Audio
ID                                       : 1
Format                                   : E-AC-3
Format/Info                              : Enhanced AC-3
Commercial name                          : Dolby Digital Plus
Codec ID                                 : A_EAC3
Duration                                 : 1 h 37 min
Bit rate mode                            : Constant
Bit rate                                 : 640 kb/s
Channel(s)                               : 6 channels
Channel layout                           : L R C LFE Ls Rs
Sampling rate                            : 48.0 kHz
Frame rate                               : 31.250 FPS (1536 SPF)
Compression mode                         : Lossy
Stream size                              : 446 MiB (4%)
Title                                    : English
Language                                 : English
Service kind                             : Complete Main
Default                                  : Yes
Forced                                   : No

Text #1
ID                                       : 2
Format                                   : UTF-8
Codec ID                                 : S_TEXT/UTF8
Codec ID/Info                            : UTF-8 Plain Text
Duration                                 : 1 h 33 min
Bit rate                                 : 82 b/s
Count of elements                        : 1931
Stream size                              : 56.5 KiB (0%)
Title                                    : English [SDH]
Language                                 : English
Default                                  : No
Forced                                   : No

Text #2
ID                                       : 3
Format                                   : UTF-8
Codec ID                                 : S_TEXT/UTF8
Codec ID/Info                            : UTF-8 Plain Text
Duration                                 : 1 h 32 min
Bit rate                                 : 62 b/s
Count of elements                        : 1301
Stream size                              : 42.6 KiB (0%)
Title                                    : Castilian [Full]
Language                                 : Spanish
Default                                  : No
Forced                                   : No

Text #3
ID                                       : 4
Format                                   : UTF-8
Codec ID                                 : S_TEXT/UTF8
Codec ID/Info                            : UTF-8 Plain Text
Duration                                 : 1 h 32 min
Bit rate                                 : 58 b/s
Count of elements                        : 1279
Stream size                              : 39.5 KiB (0%)
Title                                    : Spanish [Full]
Language                                 : Spanish
Default                                  : No
Forced                                   : No

Text #4
ID                                       : 5
Format                                   : UTF-8
Codec ID                                 : S_TEXT/UTF8
Codec ID/Info                            : UTF-8 Plain Text
Duration                                 : 1 h 32 min
Bit rate                                 : 54 b/s
Count of elements                        : 1284
Stream size                              : 36.9 KiB (0%)
Title                                    : French [Full]
Language                                 : French
Default                                  : No
Forced                                   : No

Text #5
ID                                       : 6
Format                                   : UTF-8
Codec ID                                 : S_TEXT/UTF8
Codec ID/Info                            : UTF-8 Plain Text
Duration                                 : 1 h 32 min
Bit rate                                 : 57 b/s
Count of elements                        : 1300
Stream size                              : 39.3 KiB (0%)
Title                                    : German [Full]
Language                                 : German
Default                                  : No
Forced                                   : No

Text #6
ID                                       : 7
Format                                   : UTF-8
Codec ID                                 : S_TEXT/UTF8
Codec ID/Info                            : UTF-8 Plain Text
Duration                                 : 1 h 32 min
Bit rate                                 : 55 b/s
Count of elements                        : 1300
Stream size                              : 37.4 KiB (0%)
Title                                    : Italian [Full]
Language                                 : Italian
Default                                  : No
Forced                                   : No

Text #7
ID                                       : 8
Format                                   : UTF-8
Codec ID                                 : S_TEXT/UTF8
Codec ID/Info                            : UTF-8 Plain Text
Duration                                 : 1 h 32 min
Bit rate                                 : 59 b/s
Count of elements                        : 1302
Stream size                              : 40.5 KiB (0%)
Title                                    : Brazilian Portuguese [Full]
Language                                 : Portuguese
Default                                  : No
Forced                                   : No

Text #8
ID                                       : 9
Format                                   : UTF-8
Codec ID                                 : S_TEXT/UTF8
Codec ID/Info                            : UTF-8 Plain Text
Duration                                 : 1 h 32 min
Bit rate                                 : 59 b/s
Count of elements                        : 1304
Stream size                              : 40.1 KiB (0%)
Title                                    : Polish [Full]
Language                                 : Polish
Default                                  : No
Forced                                   : No

Text #9
ID                                       : 10
Format                                   : UTF-8
Codec ID                                 : S_TEXT/UTF8
Codec ID/Info                            : UTF-8 Plain Text
Duration                                 : 1 h 32 min
Bit rate                                 : 60 b/s
Count of elements                        : 1302
Stream size                              : 41.3 KiB (0%)
Title                                    : Turkish [Full]
Language                                 : Turkish
Default                                  : No
Forced                                   : No

Text #10
ID                                       : 11
Format                                   : UTF-8
Codec ID                                 : S_TEXT/UTF8
Codec ID/Info                            : UTF-8 Plain Text
Duration                                 : 1 h 32 min
Bit rate                                 : 59 b/s
Count of elements                        : 1067
Stream size                              : 40.2 KiB (0%)
Title                                    : Swedish [Full]
Language                                 : Swedish
Default                                  : No
Forced                                   : No

Text #11
ID                                       : 12
Format                                   : UTF-8
Codec ID                                 : S_TEXT/UTF8
Codec ID/Info                            : UTF-8 Plain Text
Duration                                 : 1 h 32 min
Bit rate                                 : 62 b/s
Count of elements                        : 1302
Stream size                              : 42.1 KiB (0%)
Title                                    : Danish [Full]
Language                                 : Danish
Default                                  : No
Forced                                   : No

Text #12
ID                                       : 13
Format                                   : UTF-8
Codec ID                                 : S_TEXT/UTF8
Codec ID/Info                            : UTF-8 Plain Text
Duration                                 : 1 h 32 min
Bit rate                                 : 58 b/s
Count of elements                        : 1257
Stream size                              : 40.0 KiB (0%)
Title                                    : Finnish [Full]
Language                                 : Finnish
Default                                  : No
Forced                                   : No

Text #13
ID                                       : 14
Format                                   : UTF-8
Codec ID                                 : S_TEXT/UTF8
Codec ID/Info                            : UTF-8 Plain Text
Duration                                 : 1 h 32 min
Bit rate                                 : 54 b/s
Count of elements                        : 1228
Stream size                              : 37.3 KiB (0%)
Title                                    : Dutch [Full]
Language                                 : Dutch
Default                                  : No
Forced                                   : No

Text #14
ID                                       : 15
Format                                   : UTF-8
Codec ID                                 : S_TEXT/UTF8
Codec ID/Info                            : UTF-8 Plain Text
Duration                                 : 1 h 32 min
Bit rate                                 : 54 b/s
Count of elements                        : 1005
Stream size                              : 37.2 KiB (0%)
Title                                    : Norwegian (Bokm?l) [Full]
Language                                 : Norwegian Bokmal
Default                                  : No
Forced                                   : No

Text #15
ID                                       : 16
Format                                   : UTF-8
Codec ID                                 : S_TEXT/UTF8
Codec ID/Info                            : UTF-8 Plain Text
Duration                                 : 1 h 32 min
Bit rate                                 : 95 b/s
Count of elements                        : 1304
Stream size                              : 64.9 KiB (0%)
Title                                    : Russian [Full]
Language                                 : Russian
Default                                  : No
Forced                                   : No

Text #16
ID                                       : 17
Format                                   : UTF-8
Codec ID                                 : S_TEXT/UTF8
Codec ID/Info                            : UTF-8 Plain Text
Duration                                 : 1 h 32 min
Bit rate                                 : 94 b/s
Count of elements                        : 1304
Stream size                              : 64.2 KiB (0%)
Title                                    : Arabic [Full]
Language                                 : Arabic
Default                                  : No
Forced                                   : No

Text #17
ID                                       : 18
Format                                   : UTF-8
Codec ID                                 : S_TEXT/UTF8
Codec ID/Info                            : UTF-8 Plain Text
Duration                                 : 1 h 32 min
Bit rate                                 : 160 b/s
Count of elements                        : 1314
Stream size                              : 109 KiB (0%)
Title                                    : Hindi [Full]
Language                                 : Hindi
Default                                  : No
Forced                                   : No

Text #18
ID                                       : 19
Format                                   : UTF-8
Codec ID                                 : S_TEXT/UTF8
Codec ID/Info                            : UTF-8 Plain Text
Duration                                 : 1 h 32 min
Bit rate                                 : 168 b/s
Count of elements                        : 1304
Stream size                              : 114 KiB (0%)
Title                                    : Tamil [Full]
Language                                 : Tamil
Default                                  : No
Forced                                   : No

Text #19
ID                                       : 20
Format                                   : UTF-8
Codec ID                                 : S_TEXT/UTF8
Codec ID/Info                            : UTF-8 Plain Text
Duration                                 : 1 h 32 min
Bit rate                                 : 166 b/s
Count of elements                        : 1304
Stream size                              : 113 KiB (0%)
Title                                    : Telugu [Full]
Language                                 : Telugu
Default                                  : No
Forced                                   : No

Text #20
ID                                       : 21
Format                                   : UTF-8
Codec ID                                 : S_TEXT/UTF8
Codec ID/Info                            : UTF-8 Plain Text
Duration                                 : 1 h 32 min
Bit rate                                 : 61 b/s
Count of elements                        : 1308
Stream size                              : 41.4 KiB (0%)
Title                                    : Indonesian [Full]
Language                                 : Indonesian
Default                                  : No
Forced                                   : No

Text #21
ID                                       : 22
Format                                   : UTF-8
Codec ID                                 : S_TEXT/UTF8
Codec ID/Info                            : UTF-8 Plain Text
Duration                                 : 1 h 32 min
Bit rate                                 : 155 b/s
Count of elements                        : 1304
Stream size                              : 106 KiB (0%)
Title                                    : Thai [Full]
Language                                 : Thai
Default                                  : No
Forced                                   : No

Text #22
ID                                       : 23
Format                                   : UTF-8
Codec ID                                 : S_TEXT/UTF8
Codec ID/Info                            : UTF-8 Plain Text
Duration                                 : 1 h 32 min
Bit rate                                 : 64 b/s
Count of elements                        : 1304
Stream size                              : 44.0 KiB (0%)
Title                                    : Korean [Full]
Language                                 : Korean
Default                                  : No
Forced                                   : No

Text #23
ID                                       : 24
Format                                   : UTF-8
Codec ID                                 : S_TEXT/UTF8
Codec ID/Info                            : UTF-8 Plain Text
Duration                                 : 1 h 32 min
Bit rate                                 : 60 b/s
Count of elements                        : 1304
Stream size                              : 40.9 KiB (0%)
Title                                    : Chinese (Simplified) [Full]
Language                                 : Chinese
Default                                  : No
Forced                                   : No

Text #24
ID                                       : 25
Format                                   : UTF-8
Codec ID                                 : S_TEXT/UTF8
Codec ID/Info                            : UTF-8 Plain Text
Duration                                 : 1 h 32 min
Bit rate                                 : 55 b/s
Count of elements                        : 1306
Stream size                              : 37.6 KiB (0%)
Title                                    : Chinese (Traditional) [Full]
Language                                 : Chinese
Default                                  : No
Forced                                   : No

Text #25
ID                                       : 26
Format                                   : UTF-8
Codec ID                                 : S_TEXT/UTF8
Codec ID/Info                            : UTF-8 Plain Text
Duration                                 : 1 h 35 min
Bit rate                                 : 50 b/s
Count of elements                        : 1392
Stream size                              : 35.4 KiB (0%)
Title                                    : Japanese [Full]
Language                                 : Japanese
Default                                  : No
Forced                                   : No

Menu
00:00:00.000                             : en:Studio Logos
00:00:42.000                             : en:Opening Credits
00:01:46.000                             : en:Intro to Christmas
00:07:26.000                             : en:A chat with Miss Raylee
00:09:52.000                             : en:Warnings
00:11:50.000                             : en:A chance to work with NASA
00:17:57.000                             : en:Christmas is determined
00:26:45.000                             : en:Welcome to Birdie Scouting
00:32:35.000                             : enearning new skills
00:41:31.000                             : en:Bake a cake badge
00:48:20.000                             : en:Surviving the wilderness badge
00:56:43.000                             : enashed dreams
01:01:06.000                             : en:Renewed hope
01:07:51.000                             : en:Arrival at the Jamboree
01:14:01.000                             : en:Jamboree performances
01:24:17.000                             : en:The winner is announced
01:29:02.000                             : en:Be permanent
01:33:11.000                             : en:End Credits




                                                                                                                                                                                                        

555ac8e310c32d88f28f98bade1ff0ed.zip (52.74 KB, 下载次数: 0)

回复

使用道具 举报

小黑屋|百度云资源论坛 |网站地图

本网站所有资源来自网络,如无意中侵犯了您的权益,请发邮件至 [email protected],立即清除相关链接

GMT+8, 2020-8-8 22:17 , Processed in 0.110568 second(s), 23 queries .

Powered by Discuz! X3.2

© 2001-2013 Comsenz Inc.

快速回复 返回顶部 返回列表