百度云资源论坛

 找回密码
 立即注册
搜索

邪恶宿舍夜惊魂/暗影学园 Down.a.Dark.Hall.2018.1080p.BluRay.x264.DT...

[复制链接]
帖子完整标题:邪恶宿舍夜惊魂/暗影学园 Down.a.Dark.Hall.2018.1080p.BluRay.x264.DTS-CHD 9.16GB




◎译  名 邪恶宿舍夜惊魂 / 暗影学园(台) / 步惊魂学院(港) / 沉入暗黑走廊 / 漆黑的走廊尽头 / 黑暗走廊惊魂
◎片  名 Down a Dark Hall
◎年  代 2018
◎产  地 美国
◎类  别 剧情 / 恐怖 / 奇幻
◎语  言 英语
◎上映日期 2018-08-17(美国)
◎IMDb评分  5.1/10 from 10230 users
◎片  长 96分钟
◎导  演 罗德里格·科特兹 Rodrigo Cortés
◎编  剧 迈克尔·高德巴赫 Michael Goldbach / 克里斯·斯帕林 Chris Sparling / 路易斯·邓肯 Lois Duncan
◎主  演 安娜索菲亚·罗伯 AnnaSophia Robb
       乌玛·瑟曼 Uma Thurman
       伊莎贝拉·弗尔曼 Isabelle Fuhrman
       维多利亚·莫洛勒斯 Victoria Moroles
       诺亚·西尔弗 Noah Silver
       泰勒·拉塞尔 Taylor Russell
       罗希·戴 Rosie Day
       丽贝卡·弗朗特 Rebecca Front
       乔迪·梅 Jodhi May
       皮普·托伦斯 Pip Torrens
       克里斯蒂·米切尔 Kirsty Mitchell
       吉姆·斯图格恩 Jim Sturgeon
       大卫·艾略特 David Elliot
       布莱恩·博维尔 Brian Bovell
       Ramiro Blas
       何塞·利努艾萨 Josep Linuesa


◎标  签 恐怖 | 惊悚 | 美国 | 灵异 | 奇幻 | 2018 | 超自然 | 美国电影

◎简  介   

  从小失去父亲的女孩凯瑟琳(安娜索菲亚·罗伯 AnnaSophia Robb 饰),在青春期时无比叛逆,她糟糕的行为令学校、母亲、继父头痛不已。于是,不管凯瑟琳同意与否,母亲坚持将她送到了由杜雷伊特小姐(乌玛·瑟曼 Uma Thurman 饰)经营的布莱克伍德寄宿学校。该学校地处偏远乡村,限制学生与外界通话,拒绝网络使用,其创办初衷专门是为了教育矫正那些有着严重问题的女孩子。次日,另外四名劣迹斑斑的女孩子也来到了该学校,她们将跟随数学、文学、音乐、艺术老师学习,再造一个全新的自己。短时间内,少女们各方面的才华陆续得到激发,仿佛她们重新得到命运之神的眷顾。
  然而,一切似乎又发生的如此之诡异……
Video
ID                                       : 1
Format                                   : AVC
Format/Info                              : Advanced Video Codec
Format settings                          : CABAC / 5 Ref Frames
Format settings, CABAC                   : Yes
Format settings, ReFrames                : 5 frames
Codec ID                                 : V_MPEG4/ISO/AVC
Duration                                 : 1 h 36 min
Bit rate                                 : 12.1 Mb/s
Width                                    : 1 920 pixels
Height                                   : 804 pixels
Display aspect ratio                     : 2.40:1
Frame rate mode                          : Constant
Frame rate                               : 23.976 (24000/1001/189150) FPS
Color space                              : YUV
Chroma subsampling                       : 4:2:0
Bit depth                                : 8 bits
Scan type                                : Progressive
Bits/(Pixel*Frame)                       : 0.327
Stream size                              : 8.14 GiB (89%)
Writing library                          : x264 core 155 r2893 b00bcaf
Encoding settings                        : cabac=1 / ref=5 / deblock=1:-3:-3 / analyse=0x3:0x113 / me=umh / subme=10 / psy=1 / psy_rd=1.00:0.05 / mixed_ref=1 / me_range=48 / chroma_me=1 / trellis=2 / 8x8dct=1 / cqm=0 / deadzone=21,11 / fast_pskip=0 / chroma_qp_offset=-2 / threads=18 / lookahead_threads=3 / sliced_threads=0 / nr=0 / decimate=1 / interlaced=0 / bluray_compat=0 / constrained_intra=0 / bframes=8 / b_pyramid=2 / b_adapt=2 / b_bias=0 / direct=3 / weightb=1 / open_gop=0 / weightp=2 / keyint=250 / keyint_min=23 / scenecut=40 / intra_refresh=0 / rc_lookahead=40 / rc=crf / mbtree=0 / crf=19.5 / qcomp=0.60 / qpmin=0 / qpmax=69 / qpstep=4 / vbv_maxrate=50000 / vbv_bufsize=45000 / crf_max=0.0 / nal_hrd=none / filler=0 / ip_ratio=1.40 / pb_ratio=1.30 / aq=3:1.00
Default                                  : Yes
Forced                                   : No
Color range                              : Limited
Matrix coefficients                      : BT.709

Audio
ID                                       : 2
Format                                   : DTS
Format/Info                              : Digital Theater Systems
Codec ID                                 : A_DTS
Duration                                 : 1 h 36 min
Bit rate mode                            : Constant
Bit rate                                 : 1 509 kb/s
Channel(s)                               : 6 channels
Channel layout                           : C L R Ls Rs LFE
Sampling rate                            : 48.0 kHz
Frame rate                               : 93.750 FPS (512 SPF)
Bit depth                                : 24 bits
Compression mode                         : Lossy
Stream size                              : 1.02 GiB (11%)
Language                                 : English
Default                                  : Yes
Forced                                   : No

Text
ID                                       : 3
Format                                   : UTF-8
Codec ID                                 : S_TEXT/UTF8
Codec ID/Info                            : UTF-8 Plain Text
Duration                                 : 1 h 27 min
Bit rate                                 : 44 b/s
Count of elements                        : 1057
Stream size                              : 28.4 KiB (0%)
Language                                 : English
Default                                  : Yes
Forced                                   : No

Menu
00:00:00.000                             : en:00:00:00.000
00:06:26.177                             : en:00:06:26.177
00:11:25.685                             : en:00:11:25.685
00:16:55.139                             : en:00:16:55.139
00:21:04.638                             : en:00:21:04.638
00:28:22.701                             : en:00:28:22.701
00:33:12.199                             : en:00:33:12.199
00:39:07.428                             : en:00:39:07.428
00:44:45.391                             : en:00:44:45.391
00:48:40.835                             : en:00:48:40.835
00:55:53.600                             : en:00:55:53.600
01:01:56.880                             : en:01:01:56.880
01:07:30.380                             : en:01:07:30.380
01:11:28.493                             : en:01:11:28.493
01:16:18.115                             : en:01:16:18.115
01:26:23.428                             : en:01:26:23.428




                                                                                                                                                                                                        
                                                                                                                                                                                                                                                                                                                     
abdb09b935ca883bee32792e80810192.zip (92.69 KB, 下载次数: 0)

回复

使用道具 举报

小黑屋|百度云资源论坛 |网站地图

本网站所有资源来自网络,如无意中侵犯了您的权益,请发邮件至 [email protected],立即清除相关链接

GMT+8, 2020-8-4 07:08 , Processed in 0.107204 second(s), 23 queries .

Powered by Discuz! X3.2

© 2001-2013 Comsenz Inc.

快速回复 返回顶部 返回列表