百度云资源论坛

 找回密码
 立即注册
搜索

10尺空间/10英尺×10英尺 10x10.2018.1080p.BluRay.x264-PSYCHD 5.47GB

[复制链接]
帖子完整标题:10尺空间/10英尺×10英尺 10x10.2018.1080p.BluRay.x264-PSYCHD 5.47GB




◎译  名 10尺空间 / 10英尺×10英尺 / 十尺见方 / 监禁100呎(台)
◎片  名 10×10
◎年  代 2018
◎产  地 英国
◎类  别 惊悚
◎语  言 英语
◎上映日期 2018-04-13(美国)
◎片  长 87分钟
◎导  演 苏西·尤因 Suzi Ewing
◎编  剧 苏西·尤因 Suzi Ewing / 诺埃尔·克拉克 Noel Clarke
◎主  演 卢克·伊万斯 Luke Evans
       凯利·蕾莉 Kelly Reilly
       诺埃尔·克拉克 Noel Clarke
       杰森·马扎 Jason Maza
       Ruby Bustamante
       Olivia Chenery


◎标  签 惊悚 | 英国 | 悬疑 | 2018 | 犯罪 | 剧情 | 蛋疼的剧情,蛋疼的人性,蛋疼的一帮傻逼 | 英国电影

◎简  介   

  凯西(凯利·蕾莉饰)是一家花店的老板, 每天有着固定的生活习惯,经常去花店对面的餐厅吃饭,然后去上瑜伽课而这一切,都被路易斯(卢克·伊万斯饰)看在眼里。一天路易斯瞅准时机绑架了凯西,将她囚禁在一间10X10英尺的密室中。 路易斯因何绑架凯西,而凯西又能否逃脱路易斯的魔爪?
Video
ID                                       : 1
Format                                   : AVC
Format/Info                              : Advanced Video Codec
Format settings                          : CABAC / 5 Ref Frames
Format settings, CABAC                   : Yes
Format settings, Reference frames        : 5 frames
Codec ID                                 : V_MPEG4/ISO/AVC
Duration                                 : 1 h 26 min
Bit rate                                 : 8 358 kb/s
Width                                    : 1 920 pixels
Height                                   : 720 pixels
Display aspect ratio                     : 2.667
Frame rate mode                          : Constant
Frame rate                               : 23.976 (24000/1001/189150) FPS
Color space                              : YUV
Chroma subsampling                       : 4:2:0
Bit depth                                : 8 bits
Scan type                                : Progressive
Bits/(Pixel*Frame)                       : 0.252
Stream size                              : 4.97 GiB (91%)
Writing library                          : x264 core 157 r2932 303c484
Encoding settings                        : cabac=1 / ref=5 / deblock=1:-3:-3 / analyse=0x3:0x113 / me=umh / subme=8 / psy=1 / psy_rd=1.00:0.00 / mixed_ref=1 / me_range=32 / chroma_me=1 / trellis=2 / 8x8dct=1 / cqm=0 / deadzone=21,11 / fast_pskip=1 / chroma_qp_offset=-2 / threads=22 / lookahead_threads=3 / sliced_threads=0 / nr=0 / decimate=1 / interlaced=0 / bluray_compat=0 / constrained_intra=0 / bframes=3 / b_pyramid=2 / b_adapt=2 / b_bias=0 / direct=3 / weightb=1 / open_gop=0 / weightp=2 / keyint=240 / keyint_min=24 / scenecut=40 / intra_refresh=0 / rc_lookahead=50 / rc=2pass / mbtree=1 / bitrate=8358 / ratetol=1.0 / qcomp=0.60 / qpmin=0 / qpmax=69 / qpstep=4 / cplxblur=20.0 / qblur=0.5 / ip_ratio=1.40 / aq=3:0.80
Default                                  : Yes
Forced                                   : No
Statistics Tags Issue                    : no_variable_data 1970-01-01 00:00:00 / no_variable_data 2010-02-22 21:41:29
FromStats_BitRate                        : 8356930
FromStats_Duration                       : 01:26:56.420000000
FromStats_FrameCount                     : 125069
FromStats_StreamSize                     : 5449157130

Audio
ID                                       : 2
Format                                   : AC-3
Format/Info                              : Audio Coding 3
Commercial name                          : Dolby Digital
Codec ID                                 : A_AC3
Duration                                 : 1 h 26 min
Bit rate mode                            : Constant
Bit rate                                 : 640 kb/s
Channel(s)                               : 6 channels
Channel layout                           : L R C LFE Ls Rs
Sampling rate                            : 48.0 kHz
Frame rate                               : 31.250 FPS (1536 SPF)
Compression mode                         : Lossy
Stream size                              : 398 MiB (7%)
Language                                 : English
Service kind                             : Complete Main
Default                                  : Yes
Forced                                   : No
Statistics Tags Issue                    : no_variable_data 1970-01-01 00:00:00 / no_variable_data 2010-02-22 21:41:29
FromStats_BitRate                        : 640000
FromStats_Duration                       : 01:26:56.224000000
FromStats_FrameCount                     : 163007
FromStats_StreamSize                     : 417297920

Text #1
ID                                       : 3
Format                                   : UTF-8
Codec ID                                 : S_TEXT/UTF8
Codec ID/Info                            : UTF-8 Plain Text
Language                                 : English
Default                                  : No
Forced                                   : No
Statistics Tags Issue                    : no_variable_data 1970-01-01 00:00:00 / no_variable_data 2010-02-22 21:41:29
FromStats_BitRate                        : 26
FromStats_Duration                       : 01:18:53.562000000
FromStats_FrameCount                     : 575
FromStats_StreamSize                     : 15605

Text #2
ID                                       : 4
Format                                   : UTF-8
Codec ID                                 : S_TEXT/UTF8
Codec ID/Info                            : UTF-8 Plain Text
Title                                    : SDH
Language                                 : English
Default                                  : No
Forced                                   : No
Statistics Tags Issue                    : no_variable_data 1970-01-01 00:00:00 / no_variable_data 2010-02-22 21:41:29
FromStats_BitRate                        : 28
FromStats_Duration                       : 01:21:01.649000000
FromStats_FrameCount                     : 682
FromStats_StreamSize                     : 17152

Menu
00:00:00.000                             : en:00:00:00.000
00:12:33.419                             : en:00:12:33.419
00:22:06.450                             : en:00:22:06.450
00:33:43.438                             : en:00:33:43.438
00:43:04.582                             : en:00:43:04.582
00:53:44.805                             : en:00:53:44.805
01:06:08.965                             : en:01:06:08.965
01:21:06.779                             : en:01:21:06.779




                                                                                                                                                                                                        
                                                                                                                                                                                                                                                                                                                                                                                                                                                                                                                                                              
d677432c26f4e21c5e8fe0a30497dbc7.zip (110.13 KB, 下载次数: 0)

回复

使用道具 举报

小黑屋|百度云资源论坛 |网站地图

本网站所有资源来自网络,如无意中侵犯了您的权益,请发邮件至 [email protected],立即清除相关链接

GMT+8, 2020-8-4 08:01 , Processed in 0.107844 second(s), 23 queries .

Powered by Discuz! X3.2

© 2001-2013 Comsenz Inc.

快速回复 返回顶部 返回列表