百度云资源论坛

 找回密码
 立即注册
搜索

黄飞鸿之南北英雄 The.Unity.Of.Heroes.2018.CHINESE.1080p.BluRay.x264.T...

[复制链接]
帖子完整标题:黄飞鸿之南北英雄 The.Unity.Of.Heroes.2018.CHINESE.1080p.BluRay.x264.TrueHD5.1-CHD 9.22GB




◎译  名 The Unity Of Heroes / 黄飞鸿之生化人
◎片  名 黄飞鸿之南北英雄
◎年  代 2018
◎产  地 中国大陆
◎类  别 动作 / 武侠
◎语  言 汉语普通话
◎上映日期 2018-05-18(中国大陆)
◎片  长 104分钟
◎导  演 林珍钊 Zhenzhao Lin
◎编  剧 牛新瑶 Xinyao Niu / 高煜浩 Yuhao Gao / 杨宁 Ning Yang / 李震霄 Zhenxiao Li
◎主  演 赵文卓 Man Cheuk Chiu
       唐文龙 Michael Tong
       维妮 Ni Wei
       李璐兵 Lubing Li
       陈晨 Chen Chen
       李炳渊 Bingyuan Li
       魏小欢 Xiaohuan Wei
       许政国 Zhengguo Xu


◎标  签 黄飞鸿 | 动作 | 赵文卓 | 武侠 | 2018 | 武打片 | 赵文卓宝刀未老 | 正能量

◎简  介   

  晚清时期,外来入侵,国家内忧外患,民不聊生。黄飞鸿(赵文卓 饰)面对列强的压迫,依旧弘扬中国文化,保护民族信仰,与外来者的打击坚持抗争。在这样一个社会动荡的时期,北拳宗师吴镇南(唐文龙 饰),初入佛山北拳南传,却屡屡碰壁,面对黄飞鸿的盛情款待,吴镇南却不愿接受他的帮助。就在这个时候,洋人趁火打劫,把药品研究用在了吴镇南身上,导致两人矛盾再度激化,面对洋人的利用和威胁,吴镇南不得不和黄飞鸿展开激烈的一战。被洋人雇佣来协助研究项目的女孩路小月(魏小欢 饰)在秘密研究项目中也慢慢了解到洋人的残暴实验,渐渐地看清了洋人计划,危险一触即发……
Video
ID                                       : 1
Format                                   : AVC
Format/Info                              : Advanced Video Codec
Format settings                          : CABAC / 4 Ref Frames
Format settings, CABAC                   : Yes
Format settings, ReFrames                : 4 frames
Codec ID                                 : V_MPEG4/ISO/AVC
Duration                                 : 1 h 43 min
Bit rate                                 : 8 373 kb/s
Width                                    : 1 920 pixels
Height                                   : 836 pixels
Display aspect ratio                     : 2.25:1
Frame rate mode                          : Constant
Frame rate                               : 25.000 FPS
Color space                              : YUV
Chroma subsampling                       : 4:2:0
Bit depth                                : 8 bits
Scan type                                : Progressive
Bits/(Pixel*Frame)                       : 0.209
Stream size                              : 6.06 GiB (66%)
Writing library                          : x264 core 155 r2867+74 66b5600 t_mod_Custom_
Encoding settings                        : cabac=1 / ref=4 / deblock=1:-3:-3 / analyse=0x3:0x113 / me=umh / subme=10 / psy=1 / fade_compensate=0.00 / psy_rd=0.90:0.10 / mixed_ref=1 / me_range=48 / chroma_me=1 / trellis=2 / 8x8dct=1 / cqm=0 / deadzone=21,11 / fast_pskip=0 / chroma_qp_offset=-2 / threads=18 / lookahead_threads=3 / sliced_threads=0 / nr=0 / decimate=1 / interlaced=0 / bluray_compat=0 / constrained_intra=0 / fgo=0 / bframes=8 / b_pyramid=2 / b_adapt=2 / b_bias=0 / direct=3 / weightb=1 / open_gop=0 / weightp=2 / keyint=250 / keyint_min=25 / scenecut=40 / intra_refresh=0 / rc_lookahead=40 / rc=crf / mbtree=0 / crf=18.0000 / qcomp=0.70 / qpmin=0:0:0 / qpmax=69:69:69 / qpstep=4 / vbv_maxrate=35000 / vbv_bufsize=35000 / crf_max=0.0 / nal_hrd=none / filler=0 / ip_ratio=1.40 / pb_ratio=1.30 / aq=3:0.90 / aq-sensitivity=10.00 / aq-factor=1.00:1.00:1.00 / aq2=0 / aq3=2:[0.50:0.50]:[0.50:0.50]:[0.50:0.50]:[0.50:0.50] / aq3-sensitivity=10.00 / aq3-factor=[1.00:1.00]:[1.00:1.00]:[1.00:1.00] / aq3-boundary=192:64:24
Language                                 : Chinese
Default                                  : Yes
Forced                                   : No
Color range                              : Limited
Matrix coefficients                      : BT.709

Audio #1
ID                                       : 2
Format                                   : TrueHD
Codec ID                                 : A_TRUEHD
Duration                                 : 1 h 43 min
Bit rate mode                            : Variable
Bit rate                                 : 2 092 kb/s
Maximum bit rate                         : 2 988 kb/s
Channel(s)                               : 6 channels
Channel positions                        : Front: L C R, Side: L R, LFE
Sampling rate                            : 96.0 kHz
Frame rate                               : 2 400.000 FPS (40 SPF)
Compression mode                         : Lossless
Stream size                              : 1.51 GiB (16%)
Language                                 : Chinese
Default                                  : Yes
Forced                                   : No

Audio #2
ID                                       : 3
Format                                   : TrueHD
Codec ID                                 : A_TRUEHD
Duration                                 : 1 h 43 min
Bit rate mode                            : Variable
Bit rate                                 : 2 120 kb/s
Maximum bit rate                         : 3 246 kb/s
Channel(s)                               : 6 channels
Channel positions                        : Front: L C R, Side: L R, LFE
Sampling rate                            : 96.0 kHz
Frame rate                               : 2 400.000 FPS (40 SPF)
Compression mode                         : Lossless
Stream size                              : 1.53 GiB (17%)
Language                                 : Chinese
Default                                  : No
Forced                                   : No

Text #1
ID                                       : 4
Format                                   : PGS
Muxing mode                              : zlib
Codec ID                                 : S_HDMV/PGS
Codec ID/Info                            : Picture based subtitle format used on BDs/HD-DVDs
Duration                                 : 1 h 36 min
Bit rate                                 : 28.7 kb/s
Count of elements                        : 2402
Stream size                              : 19.8 MiB (0%)
Language                                 : Chinese
Default                                  : Yes
Forced                                   : No

Text #2
ID                                       : 5
Format                                   : PGS
Muxing mode                              : zlib
Codec ID                                 : S_HDMV/PGS
Codec ID/Info                            : Picture based subtitle format used on BDs/HD-DVDs
Duration                                 : 1 h 36 min
Bit rate                                 : 29.3 kb/s
Count of elements                        : 2402
Stream size                              : 20.2 MiB (0%)
Language                                 : Chinese
Default                                  : No
Forced                                   : No

Menu
00:00:00.000                             : en:00:00:00.000
00:09:21.000                             : en:00:09:21.000
00:17:48.960                             : en:00:17:48.960
00:26:09.360                             : en:00:26:09.360
00:32:44.560                             : en:00:32:44.560
00:42:45.840                             : en:00:42:45.840
00:50:42.320                             : en:00:50:42.320
00:59:15.040                             : en:00:59:15.040
01:10:36.600                             : en:01:10:36.600
01:17:17.640                             : en:01:17:17.640
01:26:05.240                             : en:01:26:05.240
01:36:09.960                             : en:01:36:09.960




                                                                                                                                                                                                        
                                                                                                                                                                                                                                                                                                            6a121cc0b15f63603747dc641c5cadd4.zip (92.96 KB, 下载次数: 0)

回复

使用道具 举报

小黑屋|百度云资源论坛 |网站地图

本网站所有资源来自网络,如无意中侵犯了您的权益,请发邮件至 [email protected],立即清除相关链接

GMT+8, 2020-8-4 07:22 , Processed in 0.100414 second(s), 23 queries .

Powered by Discuz! X3.2

© 2001-2013 Comsenz Inc.

快速回复 返回顶部 返回列表