百度云资源论坛

 找回密码
 立即注册
搜索

小丑旅馆:亡灵崛起 Clown.Motel.2019.720p.BluRay.x264-GETiT 3.46GB

[复制链接]
百度云电影 发表于 2020-7-29 23:27:08 | 显示全部楼层 |阅读模式
帖子完整标题:小丑旅馆:亡灵崛起 Clown.Motel.2019.720p.BluRay.x264-GETiT 3.46GB




◎译  名 小丑旅馆:亡灵崛起 / Clown Motel
◎片  名 Clown Motel: Spirits Arise
◎年  代 2019
◎产  地 美国
◎类  别 恐怖
◎语  言 英语
◎上映日期 2019-06-04(美国) / 2019-11-01(土耳其)
◎IMDb评分  5.4/10 from 1025 users
◎片  长 95分钟
◎导  演 Joseph Kelly
◎编  剧 Joseph Kelly
◎主  演 马丁·科勒巴 Martin Klebba
       Ari Lehman
       Tony Moran
       朱莉·安妮·普雷斯科特 Julie Anne Prescott
       Alyssa Leonard
       Chalet Lizette Brannan
       Donald Schell
       Angela Joseph
       Joseph Kelly
       Brandy Joseph
       Rachael Christenson
       Amanda Kott
       Angeline Mirenda
       Elinor Price
       Trevor Dow
       Johnny Perotti
       Steven Vogel
       Eric Prochnau
       David W. Bailey
       Brittany Joseph
       Robert B. Oliver
       Anson Days
       Amanda Barboza
       Paul Kalish
       Wes Djao Roten
       DieTrich Thrall
       Ed Mckallen
       Scott Courson
       Alexandra Osborne
       Joe Vallejos
       Caroll Ferguson
       Josiah Zimmerman
       Tom Days
       Shane Samsel


◎标  签 小丑旅馆 | 颜色不错,其他垃圾。 | 恐怖 | [歐美]

◎简  介   

  小丑汽车旅馆跟随一群鬼魂猎人,他们来自一个古老的鬼城和一个单身派对,从拉斯维加斯回家。当这些人误会时,他们会发现汽车旅馆是否真的被遗弃了,是否曾居住在那里的小丑的灵魂所困扰。
Video
ID                                       : 1
Format                                   : AVC
Format/Info                              : Advanced Video Codec
Format settings                          : CABAC / 8 Ref Frames
Format settings, CABAC                   : Yes
Format settings, Reference frames        : 8 frames
Codec ID                                 : V_MPEG4/ISO/AVC
Duration                                 : 1 h 35 min
Bit rate                                 : 4 519 kb/s
Width                                    : 1 280 pixels
Height                                   : 720 pixels
Display aspect ratio                     : 16:9
Frame rate mode                          : Constant
Frame rate                               : 24.000 FPS
Color space                              : YUV
Chroma subsampling                       : 4:2:0
Bit depth                                : 8 bits
Scan type                                : Progressive
Bits/(Pixel*Frame)                       : 0.204
Stream size                              : 3.03 GiB (88%)
Writing library                          : x264 core 160 r3000 33f9e14
Encoding settings                        : cabac=1 / ref=8 / deblock=1:-3:-3 / analyse=0x3:0x133 / me=umh / subme=9 / psy=1 / psy_rd=1.00:0.00 / mixed_ref=1 / me_range=16 / chroma_me=1 / trellis=2 / 8x8dct=1 / cqm=0 / deadzone=21,11 / fast_pskip=1 / chroma_qp_offset=-2 / threads=18 / lookahead_threads=1 / sliced_threads=0 / nr=0 / decimate=1 / interlaced=0 / bluray_compat=0 / constrained_intra=0 / bframes=3 / b_pyramid=2 / b_adapt=2 / b_bias=0 / direct=3 / weightb=1 / open_gop=0 / weightp=2 / keyint=250 / keyint_min=24 / scenecut=40 / intra_refresh=0 / rc_lookahead=60 / rc=crf / mbtree=1 / crf=17.0 / qcomp=0.60 / qpmin=0 / qpmax=69 / qpstep=4 / ip_ratio=1.40 / aq=3:0.80
Language                                 : English
Default                                  : Yes
Forced                                   : No
Color range                              : Limited
Matrix coefficients                      : BT.709

Audio
ID                                       : 2
Format                                   : AC-3
Format/Info                              : Audio Coding 3
Commercial name                          : Dolby Digital
Codec ID                                 : A_AC3
Duration                                 : 1 h 35 min
Bit rate mode                            : Constant
Bit rate                                 : 640 kb/s
Channel(s)                               : 2 channels
Channel layout                           : L R
Sampling rate                            : 48.0 kHz
Frame rate                               : 31.250 FPS (1536 SPF)
Bit depth                                : 16 bits
Compression mode                         : Lossy
Stream size                              : 439 MiB (12%)
Title                                    : ac3
Language                                 : English
Service kind                             : Complete Main
Default                                  : Yes
Forced                                   : No

Menu
00:00:00.000                             : en:00:00:00.000
00:11:53.000                             : en:00:11:53.000
00:24:40.000                             : en:00:24:40.000
00:34:19.000                             : en:00:34:19.000
00:46:34.000                             : en:00:46:34.000
00:57:33.000                             : en:00:57:33.000
01:08:55.000                             : en:01:08:55.000
01:20:09.000                             : en:01:20:09.000
01:31:34.000                             : en:01:31:34.000




                                                                                                                                                                                                        
                                                         
acc4f5d5fa99e62ccbd6aebab5109569.zip (35.26 KB, 下载次数: 0)

回复

使用道具 举报

小黑屋|百度云资源论坛 |网站地图

本网站所有资源来自网络,如无意中侵犯了您的权益,请发邮件至 [email protected],立即清除相关链接

GMT+8, 2020-8-7 06:03 , Processed in 0.106036 second(s), 23 queries .

Powered by Discuz! X3.2

© 2001-2013 Comsenz Inc.

快速回复 返回顶部 返回列表