百度云资源论坛

 找回密码
 立即注册
搜索

超人:明日之子 Superman.Man.of.Tomorrow.2020.720p.BluRay.x264-WoAT 1.56GB

[复制链接]
百度云电影 发表于 2020-9-23 12:40:48 | 显示全部楼层 |阅读模式
帖子完整标题:超人:明日之子 Superman.Man.of.Tomorrow.2020.720p.BluRay.x264-WoAT 1.56GB




◎译  名 超人:明日之子
◎片  名 Superman: Man of Tomorrow
◎年  代 2020
◎产  地 美国
◎类  别 动作 / 动画
◎语  言 英语
◎上映日期 2020-08-23(美国网络) / 2020-09-08(美国)
◎IMDb评分  6.4/10 from 2306 users
◎片  长 86分钟
◎导  演 克里斯·帕尔默 Chris Palmer
◎编  剧 蒂姆·谢里丹 Tim Sheridan
◎主  演 达伦·克里斯 Darren Criss
       扎克瑞·昆图 Zachary Quinto
       艾克·阿玛迪 Ike Amadi
       尤金·伯德 Eugene Byrd
       David Chen
       亚历珊德拉·达达里奥 Alexandra Daddario
       布雷特·道顿 Brett Dalton
       尼尔·弗林 Neil Flynn
       瑞恩·赫斯特 Ryan Hurst
       茜丝·琼斯 Cissy Jones
       彼得·迈克尔 Piotr Michael
       克里斯蒂娜·米利齐亚 Cristina Milizia
       艾普尔·斯图瓦特 April Stewart
       贝拉米·扬 Bellamy Young

◎标  签 DC | 动画 | 美国 | 超级英雄 | 漫画改编 | 2020 | 科幻 | 超人

◎简  介

  讲述一个年轻的克拉克·肯特在超人生涯早期的故事。关于这部电影的更多细节没有透露。
Video
ID                                       : 1
Format                                   : AVC
Format/Info                              : Advanced Video Codec
Format settings                          : CABAC / 9 Ref Frames
Format settings, CABAC                   : Yes
Format settings, Reference frames        : 9 frames
Codec ID                                 : V_MPEG4/ISO/AVC
Duration                                 : 1 h 26 min
Bit rate                                 : 1 859 kb/s
Width                                    : 1 280 pixels
Height                                   : 720 pixels
Display aspect ratio                     : 16:9
Frame rate mode                          : Constant
Frame rate                               : 23.976 (24000/1001/189150) FPS
Color space                              : YUV
Chroma subsampling                       : 4:2:0
Bit depth                                : 8 bits
Scan type                                : Progressive
Bits/(Pixel*Frame)                       : 0.084
Stream size                              : 1.12 GiB (72%)
Writing library                          : x264 core 161 r3018 db0d417
Encoding settings                        : cabac=1 / ref=9 / deblock=1:1:1 / analyse=0x3:0x133 / me=umh / subme=10 / psy=1 / psy_rd=0.40:0.00 / mixed_ref=1 / me_range=24 / chroma_me=1 / trellis=2 / 8x8dct=1 / cqm=0 / deadzone=21,11 / fast_pskip=1 / chroma_qp_offset=-2 / threads=16 / lookahead_threads=4 / sliced_threads=0 / nr=0 / decimate=1 / interlaced=0 / bluray_compat=0 / constrained_intra=0 / bframes=10 / b_pyramid=2 / b_adapt=2 / b_bias=0 / direct=3 / weightb=1 / open_gop=0 / weightp=2 / keyint=250 / keyint_min=23 / scenecut=40 / intra_refresh=0 / rc_lookahead=60 / rc=crf / mbtree=1 / crf=17.0 / qcomp=0.60 / qpmin=0 / qpmax=69 / qpstep=4 / ip_ratio=1.40 / aq=3:1.00
Default                                  : Yes
Forced                                   : No
Color range                              : Limited
Matrix coefficients                      : BT.709

Audio
ID                                       : 2
Format                                   : AC-3
Format/Info                              : Audio Coding 3
Commercial name                          : Dolby Digital
Codec ID                                 : A_AC3
Duration                                 : 1 h 26 min
Bit rate mode                            : Constant
Bit rate                                 : 640 kb/s
Channel(s)                               : 6 channels
Channel layout                           : L R C LFE Ls Rs
Sampling rate                            : 48.0 kHz
Frame rate                               : 31.250 FPS (1536 SPF)
Compression mode                         : Lossy
Stream size                              : 396 MiB (25%)
Title                                    : English
Language                                 : English
Service kind                             : Complete Main
Default                                  : No
Forced                                   : No

Text #1
ID                                       : 3
Format                                   : PGS
Muxing mode                              : zlib
Codec ID                                 : S_HDMV/PGS
Codec ID/Info                            : Picture based subtitle format used on BDs/HD-DVDs
Duration                                 : 1 h 21 min
Bit rate                                 : 30.8 kb/s
Count of elements                        : 2154
Stream size                              : 18.0 MiB (1%)
Title                                    : English
Language                                 : English
Default                                  : No
Forced                                   : No

Text #2
ID                                       : 4
Format                                   : PGS
Muxing mode                              : zlib
Codec ID                                 : S_HDMV/PGS
Codec ID/Info                            : Picture based subtitle format used on BDs/HD-DVDs
Duration                                 : 1 h 25 min
Bit rate                                 : 25.7 kb/s
Count of elements                        : 1706
Stream size                              : 15.8 MiB (1%)
Title                                    : French
Language                                 : French
Default                                  : No
Forced                                   : No

Text #3
ID                                       : 5
Format                                   : PGS
Muxing mode                              : zlib
Codec ID                                 : S_HDMV/PGS
Codec ID/Info                            : Picture based subtitle format used on BDs/HD-DVDs
Duration                                 : 1 h 25 min
Bit rate                                 : 29.6 kb/s
Count of elements                        : 2170
Stream size                              : 18.1 MiB (1%)
Title                                    : German
Language                                 : German
Default                                  : No
Forced                                   : No

Text #4
ID                                       : 6
Format                                   : PGS
Muxing mode                              : zlib
Codec ID                                 : S_HDMV/PGS
Codec ID/Info                            : Picture based subtitle format used on BDs/HD-DVDs
Duration                                 : 1 h 25 min
Bit rate                                 : 24.8 kb/s
Count of elements                        : 1772
Stream size                              : 15.2 MiB (1%)
Title                                    : Spanish
Language                                 : Spanish
Default                                  : No
Forced                                   : No

Text #5
ID                                       : 7
Format                                   : PGS
Muxing mode                              : zlib
Codec ID                                 : S_HDMV/PGS
Codec ID/Info                            : Picture based subtitle format used on BDs/HD-DVDs
Duration                                 : 1 h 25 min
Bit rate                                 : 24.2 kb/s
Count of elements                        : 1542
Stream size                              : 14.7 MiB (1%)
Title                                    : Danish
Language                                 : Danish
Default                                  : No
Forced                                   : No

Text #6
ID                                       : 8
Format                                   : PGS
Muxing mode                              : zlib
Codec ID                                 : S_HDMV/PGS
Codec ID/Info                            : Picture based subtitle format used on BDs/HD-DVDs
Duration                                 : 1 h 25 min
Bit rate                                 : 26.0 kb/s
Count of elements                        : 1588
Stream size                              : 15.9 MiB (1%)
Title                                    : Finnish
Language                                 : Finnish
Default                                  : No
Forced                                   : No

Text #7
ID                                       : 9
Format                                   : PGS
Muxing mode                              : zlib
Codec ID                                 : S_HDMV/PGS
Codec ID/Info                            : Picture based subtitle format used on BDs/HD-DVDs
Duration                                 : 1 h 25 min
Bit rate                                 : 23.8 kb/s
Count of elements                        : 1656
Stream size                              : 14.5 MiB (1%)
Title                                    : Norwegian
Language                                 : Norwegian Bokmal
Default                                  : No
Forced                                   : No

Text #8
ID                                       : 10
Format                                   : PGS
Muxing mode                              : zlib
Codec ID                                 : S_HDMV/PGS
Codec ID/Info                            : Picture based subtitle format used on BDs/HD-DVDs
Duration                                 : 1 h 25 min
Bit rate                                 : 25.4 kb/s
Count of elements                        : 1764
Stream size                              : 15.5 MiB (1%)
Title                                    : Swedish
Language                                 : Swedish
Default                                  : No
Forced                                   : No

Text #9
ID                                       : 11
Format                                   : PGS
Muxing mode                              : zlib
Codec ID                                 : S_HDMV/PGS
Codec ID/Info                            : Picture based subtitle format used on BDs/HD-DVDs
Duration                                 : 55 min 51 s
Bit rate                                 : 474 b/s
Count of elements                        : 24
Stream size                              : 194 KiB (0%)
Title                                    : French
Language                                 : French
Default                                  : No
Forced                                   : No

Text #10
ID                                       : 12
Format                                   : PGS
Muxing mode                              : zlib
Codec ID                                 : S_HDMV/PGS
Codec ID/Info                            : Picture based subtitle format used on BDs/HD-DVDs
Duration                                 : 55 min 51 s
Bit rate                                 : 474 b/s
Count of elements                        : 24
Stream size                              : 194 KiB (0%)
Title                                    : French
Language                                 : French
Default                                  : No
Forced                                   : No

Text #11
ID                                       : 13
Format                                   : PGS
Muxing mode                              : zlib
Codec ID                                 : S_HDMV/PGS
Codec ID/Info                            : Picture based subtitle format used on BDs/HD-DVDs
Duration                                 : 55 min 14 s
Bit rate                                 : 197 b/s
Count of elements                        : 8
Stream size                              : 79.8 KiB (0%)
Title                                    : Spanish
Language                                 : Spanish
Default                                  : No
Forced                                   : No

Text #12
ID                                       : 14
Format                                   : PGS
Muxing mode                              : zlib
Codec ID                                 : S_HDMV/PGS
Codec ID/Info                            : Picture based subtitle format used on BDs/HD-DVDs
Duration                                 : 55 min 14 s
Bit rate                                 : 197 b/s
Count of elements                        : 8
Stream size                              : 79.8 KiB (0%)
Title                                    : Spanish
Language                                 : Spanish
Default                                  : No
Forced                                   : No

Menu
00:00:00.000                             : en:Chapter 01
00:09:25.356                             : en:Chapter 02
00:20:07.539                             : en:Chapter 03
00:31:07.657                             : en:Chapter 04
00:40:24.797                             : en:Chapter 05
00:47:56.498                             : en:Chapter 06
00:57:28.236                             : en:Chapter 07
01:07:09.650                             : en:Chapter 08
01:15:53.882                             : en:Chapter 09
01:22:48.254                             : en:Chapter 10




                                                                                                                                                                                                        
                                                                                                                                                                                                                                          
6d0029dcbce271140801bd13e9b04b20.zip (17.13 KB, 下载次数: 0)

回复

使用道具 举报

小黑屋|百度云资源论坛 |网站地图

本网站所有资源来自网络,如无意中侵犯了您的权益,请发邮件至 [email protected],立即清除相关链接

GMT+8, 2020-10-21 16:12 , Processed in 0.112406 second(s), 23 queries .

Powered by Discuz! X3.2

© 2001-2013 Comsenz Inc.

快速回复 返回顶部 返回列表