百度云资源论坛

 找回密码
 立即注册
搜索

讨债人2 The.Debt.Collector.2.2020.720p.BluRay.x264-JustWatch 2.54GB

[复制链接]
百度云电影 发表于 2020-9-22 03:11:58 | 显示全部楼层 |阅读模式
帖子完整标题:讨债人2 The.Debt.Collector.2.2020.720p.BluRay.x264-JustWatch 2.54GB




◎译  名 讨债人2/Debt Collectors
◎片  名 The Debt Collector 2
◎年  代 2020
◎产  地 美国
◎类  别 动作
◎语  言 英语
◎上映日期 2020-05-29(德国)
◎IMDb评分  5.7/10 from 1509 users
◎导  演 杰西·约翰逊 Jesse V. Johnson
◎编  剧 杰西·约翰逊 Jesse V. Johnson / 斯图·斯莫尔 Stu Small
◎主  演 斯科特·阿金斯 Scott Adkins
       路易·曼迪勒 Louis Mandylor
       弗拉基米尔库利奇 Vladimir Kulich
       黄美玲 Mayling Ng
       马里亚诺·门多萨 Mariano Mendoza

◎标  签 动作 | 犯罪 | 斯科特·阿金斯 | 美国 | 2020 | 暴力 | 路易·曼迪勒 | 美国电影

◎简  介

  杰西·约翰逊的故事不仅延续了前作这对儿倒霉讨债组合的故事,还为他们的事业之路上设置了更多更猛的新障碍。什么小混混,大女人,黑社会大佬……想要账、讨债,过程和结果都相当不容易。除了费口舌费轮胎之外,就是仍旧很费拳头和老腰,一路讨债一路打来,拳头、腿脚、棍棒甚至冲锋枪都得用上……但越来越“干一行爱一行”的弗兰奇,和始终放荡不羁的苏,似乎更享受这样生活节奏。
Video
ID                                       : 1
Format                                   : AVC
Format/Info                              : Advanced Video Codec
Format settings                          : CABAC / 8 Ref Frames
Format settings, CABAC                   : Yes
Format settings, Reference frames        : 8 frames
Codec ID                                 : V_MPEG4/ISO/AVC
Duration                                 : 1 h 37 min
Bit rate                                 : 2 954 kb/s
Width                                    : 1 280 pixels
Height                                   : 536 pixels
Display aspect ratio                     : 2.40:1
Frame rate mode                          : Constant
Frame rate                               : 23.976 (24000/1001/189150) FPS
Color space                              : YUV
Chroma subsampling                       : 4:2:0
Bit depth                                : 8 bits
Scan type                                : Progressive
Bits/(Pixel*Frame)                       : 0.180
Stream size                              : 2.01 GiB (79%)
Writing library                          : x264 core 161 r3018 db0d417
Encoding settings                        : cabac=1 / ref=8 / deblock=1:-3:-3 / analyse=0x3:0x133 / me=umh / subme=9 / psy=1 / psy_rd=1.00:0.00 / mixed_ref=1 / me_range=16 / chroma_me=1 / trellis=2 / 8x8dct=1 / cqm=0 / deadzone=21,11 / fast_pskip=0 / chroma_qp_offset=-2 / threads=17 / lookahead_threads=1 / sliced_threads=0 / nr=0 / decimate=1 / interlaced=0 / bluray_compat=0 / constrained_intra=0 / bframes=3 / b_pyramid=2 / b_adapt=2 / b_bias=0 / direct=3 / weightb=1 / open_gop=0 / weightp=2 / keyint=250 / keyint_min=23 / scenecut=40 / intra_refresh=0 / rc_lookahead=60 / rc=crf / mbtree=1 / crf=17.0 / qcomp=0.60 / qpmin=0 / qpmax=69 / qpstep=4 / ip_ratio=1.40 / aq=1:1.00
Language                                 : English
Default                                  : Yes
Forced                                   : No

Audio #1
ID                                       : 2
Format                                   : AC-3
Format/Info                              : Audio Coding 3
Commercial name                          : Dolby Digital
Codec ID                                 : A_AC3
Duration                                 : 1 h 37 min
Bit rate mode                            : Constant
Bit rate                                 : 640 kb/s
Channel(s)                               : 6 channels
Channel layout                           : L R C LFE Ls Rs
Sampling rate                            : 48.0 kHz
Frame rate                               : 31.250 FPS (1536 SPF)
Compression mode                         : Lossy
Stream size                              : 446 MiB (17%)
Language                                 : English
Service kind                             : Complete Main
Default                                  : Yes
Forced                                   : No

Audio #2
ID                                       : 3
Format                                   : AAC LC
Format/Info                              : Advanced Audio Codec Low Complexity
Codec ID                                 : A_AAC-2
Duration                                 : 1 h 37 min
Bit rate                                 : 122 kb/s
Channel(s)                               : 2 channels
Channel layout                           : L R
Sampling rate                            : 48.0 kHz
Frame rate                               : 46.875 FPS (1024 SPF)
Compression mode                         : Lossy
Delay relative to video                  : 9 ms
Stream size                              : 85.2 MiB (3%)
Title                                    : commentary
Language                                 : English
Default                                  : No
Forced                                   : No

Text
ID                                       : 4
Format                                   : PGS
Muxing mode                              : zlib
Codec ID                                 : S_HDMV/PGS
Codec ID/Info                            : Picture based subtitle format used on BDs/HD-DVDs
Duration                                 : 1 h 30 min
Bit rate                                 : 28.0 kb/s
Count of elements                        : 2477
Stream size                              : 18.2 MiB (1%)
Language                                 : German
Default                                  : No
Forced                                   : No

Menu
00:00:00.000                             : :Kapitel 01
00:07:26.279                             : :Kapitel 02
00:19:40.805                             : :Kapitel 03
00:29:06.411                             : :Kapitel 04
00:35:54.069                             : :Kapitel 05
00:44:08.646                             : :Kapitel 06
00:49:22.793                             : :Kapitel 07
00:53:32.709                             : :Kapitel 08
01:06:05.753                             : :Kapitel 09
01:17:02.409                             : :Kapitel 10
01:29:06.466                             : :Kapitel 11
01:33:40.281                             : :Kapitel 12




                                                                                                                                                                                                        
                                                                                                                                                                                                                                                                                                                                                                                                                                                                                    
b80423024347973ab49043487dbd4ffd.zip (26.1 KB, 下载次数: 0)

回复

使用道具 举报

小黑屋|百度云资源论坛 |网站地图

本网站所有资源来自网络,如无意中侵犯了您的权益,请发邮件至 [email protected],立即清除相关链接

GMT+8, 2020-10-21 15:32 , Processed in 0.102172 second(s), 23 queries .

Powered by Discuz! X3.2

© 2001-2013 Comsenz Inc.

快速回复 返回顶部 返回列表