百度云资源论坛

 找回密码
 立即注册
搜索

土狼湖 Coyote.Lake.2019.720p.BluRay.x264-JustWatch 2.06GB

[复制链接]
百度云电影 发表于 2020-9-22 03:11:58 | 显示全部楼层 |阅读模式
帖子完整标题:土狼湖 Coyote.Lake.2019.720p.BluRay.x264-JustWatch 2.06GB




◎译  名 土狼湖
◎片  名 Coyote Lake
◎年  代 2019
◎产  地 美国
◎类  别 惊悚
◎语  言 英语
◎上映日期 2019-08-02(美国)
◎IMDb评分  5.2/10 from 631 users
◎片  长 93分钟
◎主  演 查理·韦伯 Charlie Weber
       艾德里安娜·巴拉扎 Adriana Barraza
       尼尔·桑迪兰兹 Neil Sandilands
       曼尼·佩雷斯 Manny Perez
       卡米拉·门德斯 Camila Mendes

◎标  签 犯罪 | 惊悚 | 美国 | 剧情 | 2019 | 人性 | 美国电影 | 卡米拉·门德斯

◎简  介

  艾斯特和她专制的母亲在美国与墨西哥边境经营着一家小小的过夜旅馆。一天夜里,两个不速之客的到来,威胁到所有人的安全。但是这两个女人却藏着更为惊人的秘密,她俩操纵着幕后的一切
Video
ID                                       : 1
Format                                   : AVC
Format/Info                              : Advanced Video Codec
Format settings                          : CABAC / 8 Ref Frames
Format settings, CABAC                   : Yes
Format settings, Reference frames        : 8 frames
Codec ID                                 : V_MPEG4/ISO/AVC
Duration                                 : 1 h 33 min
Bit rate                                 : 2 500 kb/s
Width                                    : 1 280 pixels
Height                                   : 538 pixels
Display aspect ratio                     : 2.40:1
Frame rate mode                          : Constant
Frame rate                               : 24.000 FPS
Color space                              : YUV
Chroma subsampling                       : 4:2:0
Bit depth                                : 8 bits
Scan type                                : Progressive
Bits/(Pixel*Frame)                       : 0.151
Stream size                              : 1.63 GiB (79%)
Writing library                          : x264 core 161 r3018 db0d417
Encoding settings                        : cabac=1 / ref=8 / deblock=1:-3:-3 / analyse=0x3:0x133 / me=umh / subme=9 / psy=1 / psy_rd=1.00:0.00 / mixed_ref=1 / me_range=16 / chroma_me=1 / trellis=2 / 8x8dct=1 / cqm=0 / deadzone=21,11 / fast_pskip=0 / chroma_qp_offset=-2 / threads=17 / lookahead_threads=1 / sliced_threads=0 / nr=0 / decimate=1 / interlaced=0 / bluray_compat=0 / constrained_intra=0 / bframes=3 / b_pyramid=2 / b_adapt=2 / b_bias=0 / direct=3 / weightb=1 / open_gop=0 / weightp=2 / keyint=250 / keyint_min=24 / scenecut=40 / intra_refresh=0 / rc_lookahead=60 / rc=crf / mbtree=1 / crf=17.0 / qcomp=0.60 / qpmin=0 / qpmax=69 / qpstep=4 / ip_ratio=1.40 / aq=1:1.00
Language                                 : English
Default                                  : Yes
Forced                                   : No

Audio
ID                                       : 2
Format                                   : AC-3
Format/Info                              : Audio Coding 3
Commercial name                          : Dolby Digital
Codec ID                                 : A_AC3
Duration                                 : 1 h 33 min
Bit rate mode                            : Constant
Bit rate                                 : 640 kb/s
Channel(s)                               : 6 channels
Channel layout                           : L R C LFE Ls Rs
Sampling rate                            : 48.0 kHz
Frame rate                               : 31.250 FPS (1536 SPF)
Compression mode                         : Lossy
Stream size                              : 428 MiB (20%)
Language                                 : English
Service kind                             : Complete Main
Default                                  : Yes
Forced                                   : No

Text #1
ID                                       : 3
Format                                   : UTF-8
Codec ID                                 : S_TEXT/UTF8
Codec ID/Info                            : UTF-8 Plain Text
Duration                                 : 1 h 20 min
Bit rate                                 : 10 b/s
Count of elements                        : 209
Stream size                              : 5.92 KiB (0%)
Language                                 : English
Default                                  : Yes
Forced                                   : No

Text #2
ID                                       : 4
Format                                   : PGS
Muxing mode                              : zlib
Codec ID                                 : S_HDMV/PGS
Codec ID/Info                            : Picture based subtitle format used on BDs/HD-DVDs
Duration                                 : 1 h 20 min
Bit rate                                 : 6 152 b/s
Count of elements                        : 418
Stream size                              : 3.53 MiB (0%)
Language                                 : English
Default                                  : No
Forced                                   : No

Text #3
ID                                       : 5
Format                                   : PGS
Muxing mode                              : zlib
Codec ID                                 : S_HDMV/PGS
Codec ID/Info                            : Picture based subtitle format used on BDs/HD-DVDs
Duration                                 : 1 h 21 min
Bit rate                                 : 28.2 kb/s
Count of elements                        : 1746
Stream size                              : 16.5 MiB (1%)
Language                                 : German
Default                                  : No
Forced                                   : No

Menu
00:00:00.000                             : :Kapitel 01
00:04:53.875                             : :Kapitel 02
00:12:11.167                             : :Kapitel 03
00:17:18.375                             : :Kapitel 04
00:23:15.792                             : :Kapitel 05
00:29:31.083                             : :Kapitel 06
00:35:03.375                             : :Kapitel 07
00:38:52.625                             : :Kapitel 08
00:42:40.333                             : :Kapitel 09
00:47:12.375                             : :Kapitel 10
00:51:28.375                             : :Kapitel 11
01:00:21.500                             : :Kapitel 12
01:05:51.500                             : :Kapitel 13
01:12:44.750                             : :Kapitel 14
01:19:02.500                             : :Kapitel 15
01:29:27.000                             : :Kapitel 16




                                                                                                                                                                                                        
                                                                                                                                                                                                                                          
41c00ea99d8536573505c388b1859973.zip (21.3 KB, 下载次数: 0)

回复

使用道具 举报

小黑屋|百度云资源论坛 |网站地图

本网站所有资源来自网络,如无意中侵犯了您的权益,请发邮件至 [email protected],立即清除相关链接

GMT+8, 2020-10-30 20:37 , Processed in 0.103518 second(s), 23 queries .

Powered by Discuz! X3.2

© 2001-2013 Comsenz Inc.

快速回复 返回顶部 返回列表