百度云资源论坛

 找回密码
 立即注册
搜索

托马斯大电影之世界探险记 Thomas.and.Friends.Big.World.Big.Adventu...

[复制链接]
百度云资源 发表于 2020-9-22 03:11:58 | 显示全部楼层 |阅读模式
帖子完整标题:托马斯大电影之世界探险记 Thomas.and.Friends.Big.World.Big.Adventures.The.Movie.2018.720p.BluRay.x264-GETiT 2.23GB




◎译  名 托马斯大电影之世界探险记/Thomas, Big World! Big Adventures! The Movie/托马斯大电影之世界大冒险/汤玛士小火车:环游世界大冒险(台)
◎片  名 Thomas & Friends: Big World! Big Adventures! The Movie
◎年  代 2018
◎产  地 英国
◎类  别 动画 / 儿童
◎语  言 英语
◎上映日期 2018-07-20(英国) / 2019-05-31(中国大陆)
◎IMDb评分  5.4/10 from 191 users
◎片  长 85分钟
◎导  演 大卫·斯特登 David Stoten
◎编  剧 安德鲁·布瑞纳 Andrew Brenner / 布瑞特·奥克罗夫特 Britt Allcroft / 雷夫·W·奥德里 Rev. W. Awdry
◎主  演 约瑟夫·梅 Joseph May
       泰莉莎·加拉赫 Teresa Gallagher
       凯瑞·莎勒 Kerry Shale
       大卫·曼金 David Menkin
       金宝·张 Chipo Chung
       约翰·哈斯勒 John Hasler
       彼得·安德烈 Peter Andre
       蒂娜·德赛 Tina Desai
       露西·蒙格马利 Lucy Montgomery
       朱尔斯·德·容 Jules de Jongh
       基思·威克姆 Keith Wickham

◎标  签 动画 | 英国 | 火车头 | 2019 | 儿童节 | 友谊 | 冒险 | 搞笑

◎简  介

  一辆来自澳洲的淘气小赛车艾斯,参加世界巡回比赛时路过了多多岛。从未离开过多多岛的小火车托马斯听到艾斯游历世界的见闻后,也决定展开自己第一次的全球大冒险!他和新的朋友——来自非洲肯尼亚的女性火车妮亚,一起越过沙漠、丛林还有危险的高山,横跨非洲、南美洲、中美洲、北美洲和亚洲等五大洲,体验前所未见的壮丽景色和异国风情,用友谊、智慧与勇气写下了属于自己成长冒险之旅。
Video
ID                                       : 1
Format                                   : AVC
Format/Info                              : Advanced Video Codec
Format settings                          : CABAC / 8 Ref Frames
Format settings, CABAC                   : Yes
Format settings, Reference frames        : 8 frames
Codec ID                                 : V_MPEG4/ISO/AVC
Duration                                 : 1 h 21 min
Bit rate                                 : 3 470 kb/s
Width                                    : 1 280 pixels
Height                                   : 720 pixels
Display aspect ratio                     : 16:9
Frame rate mode                          : Constant
Frame rate                               : 25.000 FPS
Color space                              : YUV
Chroma subsampling                       : 4:2:0
Bit depth                                : 8 bits
Scan type                                : Progressive
Bits/(Pixel*Frame)                       : 0.151
Stream size                              : 1.98 GiB (89%)
Writing library                          : x264 core 161 r3018 db0d417
Encoding settings                        : cabac=1 / ref=8 / deblock=1:-3:-3 / analyse=0x3:0x133 / me=umh / subme=9 / psy=1 / psy_rd=1.00:0.00 / mixed_ref=1 / me_range=16 / chroma_me=1 / trellis=2 / 8x8dct=1 / cqm=0 / deadzone=21,11 / fast_pskip=1 / chroma_qp_offset=-2 / threads=22 / lookahead_threads=1 / sliced_threads=0 / nr=0 / decimate=1 / interlaced=0 / bluray_compat=0 / constrained_intra=0 / bframes=3 / b_pyramid=2 / b_adapt=2 / b_bias=0 / direct=3 / weightb=1 / open_gop=0 / weightp=2 / keyint=250 / keyint_min=25 / scenecut=40 / intra_refresh=0 / rc_lookahead=60 / rc=crf / mbtree=1 / crf=17.0 / qcomp=0.60 / qpmin=0 / qpmax=69 / qpstep=4 / ip_ratio=1.40 / aq=3:0.80
Language                                 : English
Default                                  : Yes
Forced                                   : No
Color range                              : Limited
Matrix coefficients                      : BT.709

Audio
ID                                       : 2
Format                                   : AC-3
Format/Info                              : Audio Coding 3
Commercial name                          : Dolby Digital
Codec ID                                 : A_AC3
Duration                                 : 1 h 21 min
Bit rate mode                            : Constant
Bit rate                                 : 448 kb/s
Channel(s)                               : 6 channels
Channel layout                           : L R C LFE Ls Rs
Sampling rate                            : 48.0 kHz
Frame rate                               : 31.250 FPS (1536 SPF)
Compression mode                         : Lossy
Stream size                              : 261 MiB (11%)
Title                                    : ac3
Language                                 : English
Service kind                             : Complete Main
Default                                  : Yes
Forced                                   : No

Menu
00:00:00.000                             : en:00:00:00.000
00:07:44.240                             : en:00:07:44.240
00:15:31.160                             : en:00:15:31.160
00:22:31.120                             : en:00:22:31.120
00:32:52.520                             : en:00:32:52.520
00:41:30.480                             : en:00:41:30.480
00:51:42.080                             : en:00:51:42.080
00:59:31.280                             : en:00:59:31.280
01:06:18.280                             : en:01:06:18.280
01:15:07.240                             : en:01:15:07.240
01:20:00.880                             : en:01:20:00.880




                                                                                                                                                                                                        
                                                                                                                                                                                                                                                  
7b04e9cb3a857ca778f5fbd25af09643.zip (23.17 KB, 下载次数: 0)

回复

使用道具 举报

小黑屋|百度云资源论坛 |网站地图

本网站所有资源来自网络,如无意中侵犯了您的权益,请发邮件至 [email protected],立即清除相关链接

GMT+8, 2020-10-21 15:52 , Processed in 0.117686 second(s), 23 queries .

Powered by Discuz! X3.2

© 2001-2013 Comsenz Inc.

快速回复 返回顶部 返回列表