百度云资源论坛

 找回密码
 立即注册
搜索

我的冤家是条狗/帕特里克 Patrick.2018.1080p.BluRay.x264.DTS-HD.MA.5...

[复制链接]
百度云资源 发表于 2020-7-27 14:18:45 | 显示全部楼层 |阅读模式
帖子完整标题:我的冤家是条狗/帕特里克 Patrick.2018.1080p.BluRay.x264.DTS-HD.MA.5.1-CHD 8.85GB




◎译  名 我的冤家是条狗 / 帕特里克 / 缘来靠八哥?(港) / 萌犬派崔克(台)
◎片  名 Patrick
◎年  代 2018
◎产  地 英国
◎类  别 喜剧 / 家庭
◎语  言 英语
◎上映日期 2018-06-29(英国) / 2018-11-09(中国大陆)
◎IMDb评分  5.8/10 from 2736 users
◎片  长 95分钟
◎导  演 曼迪·弗莱彻 Mandie Fletcher
◎编  剧 凡妮莎·戴维斯 Vanessa Davies / 曼迪·弗莱彻 Mandie Fletcher / 保罗·德·沃斯 Paul de Vos
◎主  演 比蒂·埃德蒙森 Beattie Edmondson
       艾德·斯克林 Ed Skrein
       米兰卡·布鲁克斯 Milanka Brooks
       杰玛·琼斯 Gemma Jones
       切瑞·朗吉 Cherie Lunghi
       艾米丽·阿塔克 Emily Atack
       彼得·戴维森 Peter Davison
       艾米莉亚·琼斯 Emilia Jones
       珍妮弗·桑德斯 Jennifer Saunders
       阿德里安·斯卡伯勒 Adrian Scarborough
       伯纳德·克理宾斯 Bernard Cribbins


◎标  签 狗狗 | 喜剧 | 温情 | 英国 | 动物 | 英式幽默 | 成长 | 2018

◎简  介   

  一事无成的大龄女青年莎拉意外继承了外婆的宠物犬“八哥”。这让她原本就一团乱麻的生 活更加雪上加霜。当这位四条腿的不速之客不断地制造麻烦时,五短身材又臭脾气的它, 也给莎拉的生活带来了阳光和转机。
Video
ID                                       : 1
Format                                   : AVC
Format/Info                              : Advanced Video Codec
Format settings                          : CABAC / 4 Ref Frames
Format settings, CABAC                   : Yes
Format settings, ReFrames                : 4 frames
Codec ID                                 : V_MPEG4/ISO/AVC
Duration                                 : 1 h 34 min
Bit rate                                 : 9 858 kb/s
Width                                    : 1 920 pixels
Height                                   : 804 pixels
Display aspect ratio                     : 2.40:1
Frame rate mode                          : Constant
Frame rate                               : 23.976 (24000/1001/189150) FPS
Color space                              : YUV
Chroma subsampling                       : 4:2:0
Bit depth                                : 8 bits
Scan type                                : Progressive
Bits/(Pixel*Frame)                       : 0.266
Stream size                              : 6.51 GiB (74%)
Writing library                          : x264 core 155 r2867+74 66b5600 t_mod_Custom_2 [1 X86_64]
Encoding settings                        : cabac=1 / ref=4 / deblock=1:-3:-3 / analyse=0x3:0x133 / me=umh / subme=10 / psy=1 / fade_compensate=0.00 / psy_rd=0.95:0.10 / mixed_ref=1 / me_range=48 / chroma_me=1 / trellis=2 / 8x8dct=1 / cqm=0 / deadzone=21,11 / fast_pskip=0 / chroma_qp_offset=-4 / threads=18 / lookahead_threads=3 / sliced_threads=0 / nr=0 / decimate=1 / interlaced=0 / bluray_compat=0 / constrained_intra=0 / fgo=0 / bframes=8 / b_pyramid=2 / b_adapt=2 / b_bias=0 / direct=3 / weightb=1 / open_gop=0 / weightp=2 / keyint=250 / keyint_min=23 / scenecut=40 / intra_refresh=0 / rc_lookahead=60 / rc=crf / mbtree=0 / crf=19.0000 / qcomp=0.70 / qpmin=0:0:0 / qpmax=69:69:69 / qpstep=4 / vbv_maxrate=35000 / vbv_bufsize=35000 / crf_max=0.0 / nal_hrd=none / filler=0 / ip_ratio=1.40 / pb_ratio=1.30 / aq=3:1.00 / aq-sensitivity=10.00 / aq-factor=1.00:1.00:1.00 / aq2=0 / aq3=2:[0.50:0.50]:[0.50:0.50]:[0.50:0.50]:[0.50:0.50] / aq3-sensitivity=10.00 / aq3-factor=[1.00:1.00]:[1.00:1.00]:[1.00:1.00] / aq3-boundary=192:64:24
Language                                 : English
Default                                  : Yes
Forced                                   : No

Audio
ID                                       : 2
Format                                   : DTS XLL
Format/Info                              : Digital Theater Systems
Commercial name                          : DTS-HD Master Audio
Codec ID                                 : A_DTS
Duration                                 : 1 h 34 min
Bit rate mode                            : Variable
Bit rate                                 : 3 543 kb/s
Channel(s)                               : 6 channels
Channel layout                           : C L R Ls Rs LFE
Sampling rate                            : 48.0 kHz
Frame rate                               : 93.750 FPS (512 SPF)
Bit depth                                : 24 bits
Compression mode                         : Lossless
Stream size                              : 2.34 GiB (26%)
Language                                 : English
Default                                  : Yes
Forced                                   : No




                                                                                                                                                                                                        
                                                                                                                                                                                                                                                                                                                                                                                                                                                                                                                                                                                                                                                                                                                                                                                                                45155922385a539805a978391e9d3c0b.zip (45.34 KB, 下载次数: 0)

回复

使用道具 举报

小黑屋|百度云资源论坛 |网站地图

本网站所有资源来自网络,如无意中侵犯了您的权益,请发邮件至 [email protected],立即清除相关链接

GMT+8, 2020-8-4 08:05 , Processed in 0.105141 second(s), 23 queries .

Powered by Discuz! X3.2

© 2001-2013 Comsenz Inc.

快速回复 返回顶部 返回列表