百度云资源论坛

 找回密码
 立即注册
搜索

血腥兄弟会 Pledge.2018.1080p.BluRay.x264.DTS-CHD 7.85GB

[复制链接]
百度云资源 发表于 2020-7-27 14:18:45 | 显示全部楼层 |阅读模式
帖子完整标题:血腥兄弟会 Pledge.2018.1080p.BluRay.x264.DTS-CHD 7.85GB




◎译  名 血腥兄弟会
◎片  名 Pledge
◎年  代 2018
◎产  地 美国
◎类  别 恐怖
◎语  言 英语
◎上映日期 2018-07-24(加拿大奇幻电影节)
◎IMDb评分  5.4/10 from 2523 users
◎片  长 77分钟
◎导  演 Daniel Robbins
◎编  剧 扎克·维纳 Zack Weiner
◎主  演 扎克里·伯德 Zachery Byrd
       菲利普·安德瑞·波铁洛 Phillip Andre Botello
       亚伦·达拉·维拉 Aaron Dalla Villa
       扎克·维纳 Zack Weiner
       Erica Boozer
       卡梅伦·考普斯威特 Cameron Cowperthwaite
       杰西·皮门泰尔 Jesse Pimentel
       让-路易·德户勒赫 Jean-Louis Droulers
       Joe Gallagher
       Melanie Rothman
       亚历山卓·巴格特 Alexandre Bagot
       Jackie Taylor
       James Watson


◎标  签 恐怖 | 美国 | 惊悚 | 2018 | 犯罪 | 美国电影 | 人性 | 电影

◎简  介   

  A group of college freshmen pledge an exclusive fraternity but soon realize there's more at stake than they could have ever imagined.
Video
ID                                       : 1
Format                                   : AVC
Format/Info                              : Advanced Video Codec
Format settings                          : CABAC / 4 Ref Frames
Format settings, CABAC                   : Yes
Format settings, ReFrames                : 4 frames
Codec ID                                 : V_MPEG4/ISO/AVC
Duration                                 : 1 h 17 min
Bit rate                                 : 13.0 Mb/s
Width                                    : 1 920 pixels
Height                                   : 806 pixels
Display aspect ratio                     : 2.40:1
Frame rate mode                          : Constant
Frame rate                               : 23.976 (24000/1001/189150) FPS
Color space                              : YUV
Chroma subsampling                       : 4:2:0
Bit depth                                : 8 bits
Scan type                                : Progressive
Bits/(Pixel*Frame)                       : 0.349
Stream size                              : 7.03 GiB (90%)
Writing library                          : x264 core 155 r2867+74 66b5600 t_mod_Custom_2 [1 X86_64]
Encoding settings                        : cabac=1 / ref=4 / deblock=1:-3:-3 / analyse=0x3:0x133 / me=umh / subme=10 / psy=1 / fade_compensate=0.00 / psy_rd=0.95:0.10 / mixed_ref=1 / me_range=48 / chroma_me=1 / trellis=2 / 8x8dct=1 / cqm=0 / deadzone=21,11 / fast_pskip=0 / chroma_qp_offset=-4 / threads=18 / lookahead_threads=3 / sliced_threads=0 / nr=0 / decimate=1 / interlaced=0 / bluray_compat=0 / constrained_intra=0 / fgo=0 / bframes=8 / b_pyramid=2 / b_adapt=2 / b_bias=0 / direct=3 / weightb=1 / open_gop=0 / weightp=2 / keyint=250 / keyint_min=23 / scenecut=40 / intra_refresh=0 / rc_lookahead=60 / rc=crf / mbtree=0 / crf=20.5100 / qcomp=0.70 / qpmin=0:0:0 / qpmax=69:69:69 / qpstep=4 / vbv_maxrate=35000 / vbv_bufsize=35000 / crf_max=0.0 / nal_hrd=none / filler=0 / ip_ratio=1.40 / pb_ratio=1.30 / aq=3:1.00 / aq-sensitivity=10.00 / aq-factor=1.00:1.00:1.00 / aq2=0 / aq3=2:[0.50:0.50]:[0.50:0.50]:[0.50:0.50]:[0.50:0.50] / aq3-sensitivity=10.00 / aq3-factor=[1.00:1.00]:[1.00:1.00]:[1.00:1.00] / aq3-boundary=192:64:24
Language                                 : English
Default                                  : Yes
Forced                                   : No

Audio
ID                                       : 2
Format                                   : DTS
Format/Info                              : Digital Theater Systems
Codec ID                                 : A_DTS
Duration                                 : 1 h 17 min
Bit rate mode                            : Constant
Bit rate                                 : 1 509 kb/s
Channel(s)                               : 6 channels
Channel layout                           : C L R Ls Rs LFE
Sampling rate                            : 48.0 kHz
Frame rate                               : 93.750 FPS (512 SPF)
Bit depth                                : 24 bits
Compression mode                         : Lossy
Stream size                              : 838 MiB (10%)
Language                                 : English
Default                                  : Yes
Forced                                   : No




                                                                                                                                                                                                        
                                                                                                                                                                                                                                                                                                                                                                                                                                                                                                                                                                                                                                                                                                                                                                                                                      0891c5a77f2c65ce690b70fda65ad887.zip (39.87 KB, 下载次数: 0)

回复

使用道具 举报

小黑屋|百度云资源论坛 |网站地图

本网站所有资源来自网络,如无意中侵犯了您的权益,请发邮件至 [email protected],立即清除相关链接

GMT+8, 2020-8-4 07:26 , Processed in 0.111829 second(s), 23 queries .

Powered by Discuz! X3.2

© 2001-2013 Comsenz Inc.

快速回复 返回顶部 返回列表