百度云资源论坛

 找回密码
 立即注册
搜索

锈溪惊魂/锈溪 Rust.Creek.2018.1080p.BluRay.x264.DTS-CHD 10.93GB

[复制链接]
百度云资源 发表于 2020-7-27 14:18:45 | 显示全部楼层 |阅读模式
帖子完整标题:锈溪惊魂/锈溪 Rust.Creek.2018.1080p.BluRay.x264.DTS-CHD 10.93GB




◎译  名 锈溪惊魂 / 锈溪 / 锈色小溪
◎片  名 Rust Creek
◎年  代 2019
◎产  地 美国
◎类  别 剧情 / 惊悚
◎语  言 英语
◎上映日期 2019-01-04(美国)
◎IMDb评分  5.8/10 from 4994 users
◎片  长 108分钟
◎导  演 简·麦克高文 Jen McGowan
◎编  剧 朱莉·立普森 Julie Lipson / 斯塔·波拉德 Stu Pollard
◎主  演 赫敏·科菲尔德 Hermione Corfield
       丹妮丝·达·维拉 Denise Dal Vera
       杰里米·格雷泽 Jeremy Glazer
       劳拉·古兹曼 Laura Guzman
       麦卡·霍普特曼 Micah Hauptman
       丹尼尔·R·希尔 Daniel R. Hill
       约翰·马歇尔·琼斯 John Marshall Jones
       杰克·基德韦尔 Jake Kidwell
       肖恩·奥布赖恩 Sean O'Bryan
       杰伊·保尔森 Jay Paulson
       弗吉尼亚·施奈德 Virginia Schneider


◎标  签 惊悚 | 美国 | 犯罪 | 2019 | 剧情 | 逃脱 | 悬疑 | 暴力

◎简  介   

  索耶(赫敏·科菲尔德饰)是一位雄心勃勃、成绩优异的大学生。一次求职面试的路上,她开车错误转弯进入了肯塔基州森林深处。 突然之间,她发现自己面临死亡,因为她遭遇了一群无情的不法分子。 如果索耶希望活着逃离,那么她必须抓住一切机会。
Video
ID                                       : 1
Format                                   : AVC
Format/Info                              : Advanced Video Codec
Format settings                          : CABAC / 4 Ref Frames
Format settings, CABAC                   : Yes
Format settings, ReFrames                : 4 frames
Codec ID                                 : V_MPEG4/ISO/AVC
Duration                                 : 1 h 48 min
Bit rate                                 : 13.0 Mb/s
Width                                    : 1 920 pixels
Height                                   : 800 pixels
Display aspect ratio                     : 2.40:1
Frame rate mode                          : Constant
Frame rate                               : 23.976 (24000/1001/189150) FPS
Color space                              : YUV
Chroma subsampling                       : 4:2:0
Bit depth                                : 8 bits
Scan type                                : Progressive
Bits/(Pixel*Frame)                       : 0.352
Stream size                              : 9.78 GiB (90%)
Writing library                          : x264 core 155 r2867+74 66b5600 t_mod_Custom_2 [1 X86_64]
Encoding settings                        : cabac=1 / ref=4 / deblock=1:-3:-3 / analyse=0x3:0x133 / me=umh / subme=10 / psy=1 / fade_compensate=0.00 / psy_rd=0.95:0.10 / mixed_ref=1 / me_range=48 / chroma_me=1 / trellis=2 / 8x8dct=1 / cqm=0 / deadzone=21,11 / fast_pskip=0 / chroma_qp_offset=-4 / threads=18 / lookahead_threads=3 / sliced_threads=0 / nr=0 / decimate=1 / interlaced=0 / bluray_compat=0 / constrained_intra=0 / fgo=0 / bframes=8 / b_pyramid=2 / b_adapt=2 / b_bias=0 / direct=3 / weightb=1 / open_gop=0 / weightp=2 / keyint=250 / keyint_min=23 / scenecut=40 / intra_refresh=0 / rc_lookahead=60 / rc=crf / mbtree=0 / crf=20.0000 / qcomp=0.70 / qpmin=0:0:0 / qpmax=69:69:69 / qpstep=4 / vbv_maxrate=35000 / vbv_bufsize=35000 / crf_max=0.0 / nal_hrd=none / filler=0 / ip_ratio=1.40 / pb_ratio=1.30 / aq=3:1.00 / aq-sensitivity=10.00 / aq-factor=1.00:1.00:1.00 / aq2=0 / aq3=2:[0.50:0.50]:[0.50:0.50]:[0.50:0.50]:[0.50:0.50] / aq3-sensitivity=10.00 / aq3-factor=[1.00:1.00]:[1.00:1.00]:[1.00:1.00] / aq3-boundary=192:64:24
Language                                 : English
Default                                  : Yes
Forced                                   : No

Audio
ID                                       : 2
Format                                   : DTS
Format/Info                              : Digital Theater Systems
Codec ID                                 : A_DTS
Duration                                 : 1 h 48 min
Bit rate mode                            : Constant
Bit rate                                 : 1 509 kb/s
Channel(s)                               : 6 channels
Channel layout                           : C L R Ls Rs LFE
Sampling rate                            : 48.0 kHz
Frame rate                               : 93.750 FPS (512 SPF)
Bit depth                                : 24 bits
Compression mode                         : Lossy
Stream size                              : 1.14 GiB (10%)
Language                                 : English
Default                                  : Yes
Forced                                   : No

Text #1
ID                                       : 3
Format                                   : UTF-8
Codec ID                                 : S_TEXT/UTF8
Codec ID/Info                            : UTF-8 Plain Text
Duration                                 : 1 h 40 min
Bit rate                                 : 41 b/s
Count of elements                        : 1094
Stream size                              : 30.3 KiB (0%)
Language                                 : English
Default                                  : Yes
Forced                                   : No

Text #2
ID                                       : 4
Format                                   : UTF-8
Codec ID                                 : S_TEXT/UTF8
Codec ID/Info                            : UTF-8 Plain Text
Duration                                 : 1 h 45 min
Bit rate                                 : 45 b/s
Count of elements                        : 1384
Stream size                              : 35.4 KiB (0%)
Title                                    : SDH
Language                                 : English
Default                                  : No
Forced                                   : No

Menu
00:00:00.000                             : en:Chapter 01
00:07:59.437                             : en:Chapter 02
00:16:46.172                             : en:Chapter 03
00:26:58.325                             : en:Chapter 04
00:36:11.503                             : en:Chapter 05
00:43:18.805                             : en:Chapter 06
00:50:48.963                             : en:Chapter 07
00:58:28.547                             : en:Chapter 08
01:06:55.094                             : en:Chapter 09
01:17:13.921                             : en:Chapter 10
01:26:54.751                             : en:Chapter 11
01:35:12.874                             : en:Chapter 12




                                                                                                                                                                                                        
                                                                                                                                                                                                                                                                                                                                                                                                                                                                                                                                                                                                                                                                                                                                                                                                             6e9278cf78249f8a665d1573a524ad23.zip (55.29 KB, 下载次数: 0)

回复

使用道具 举报

小黑屋|百度云资源论坛 |网站地图

本网站所有资源来自网络,如无意中侵犯了您的权益,请发邮件至 [email protected],立即清除相关链接

GMT+8, 2020-8-4 08:12 , Processed in 0.119818 second(s), 23 queries .

Powered by Discuz! X3.2

© 2001-2013 Comsenz Inc.

快速回复 返回顶部 返回列表