百度云资源论坛

 找回密码
 立即注册
搜索

咒语 The.Incantation.2018.1080p.BluRay.x264.DTS-CHD 10.33GB

[复制链接]
百度云资源 发表于 2020-7-26 11:05:48 | 显示全部楼层 |阅读模式
帖子完整标题:咒语 The.Incantation.2018.1080p.BluRay.x264.DTS-CHD 10.33GB




◎译  名 咒语
◎片  名 The Incantation
◎年  代 2018
◎产  地 美国
◎类  别 恐怖 / 奇幻 / 冒险
◎语  言 英语
◎上映日期 2018-08-31(美国)
◎IMDb评分  3.4/10 from 394 users
◎片  长 98分钟
◎导  演 Jude S. Walko
◎编  剧 Jude S. Walko
◎主  演 迪恩·凯恩 Dean Cain
       Samuel Valentine
       Dylan Kellogg
       裘德·沃尔克 Jude S. Walko


◎标  签 恐怖 | 惊悚 | 美国 | 奇幻 | 2018 | 悬疑 | 法国 | 美国电影

◎简  介   

  露西前往祖先遺留的城堡後,遇到許多超自然現象並意外發現神秘禁地,墓園園丁尚皮耶告訴露西家族曾在該地區以黑魔法控制平民靈魂換取財富。某天來到地下室後發現眾人利用黑彌撒試圖召喚永生,並逼她就範,露西奮力反擊,逃出屋外卻發現大家都是幽靈。
Video
ID                                       : 1
Format                                   : AVC
Format/Info                              : Advanced Video Codec
Format settings                          : CABAC / 4 Ref Frames
Format settings, CABAC                   : Yes
Format settings, ReFrames                : 4 frames
Codec ID                                 : V_MPEG4/ISO/AVC
Duration                                 : 1 h 38 min
Bit rate                                 : 13.5 Mb/s
Width                                    : 1 920 pixels
Height                                   : 1 080 pixels
Display aspect ratio                     : 16:9
Frame rate mode                          : Constant
Frame rate                               : 23.976 (24000/1001/189150) FPS
Color space                              : YUV
Chroma subsampling                       : 4:2:0
Bit depth                                : 8 bits
Scan type                                : Progressive
Bits/(Pixel*Frame)                       : 0.272
Stream size                              : 9.29 GiB (90%)
Writing library                          : x264 core 155 r2893 b00bcaf
Encoding settings                        : cabac=1 / ref=4 / deblock=1:-3:-3 / analyse=0x3:0x113 / me=umh / subme=10 / psy=1 / psy_rd=1.00:0.05 / mixed_ref=1 / me_range=48 / chroma_me=1 / trellis=2 / 8x8dct=1 / cqm=0 / deadzone=21,11 / fast_pskip=0 / chroma_qp_offset=-2 / threads=18 / lookahead_threads=3 / sliced_threads=0 / nr=0 / decimate=1 / interlaced=0 / bluray_compat=0 / constrained_intra=0 / bframes=8 / b_pyramid=2 / b_adapt=2 / b_bias=0 / direct=3 / weightb=1 / open_gop=0 / weightp=2 / keyint=250 / keyint_min=23 / scenecut=40 / intra_refresh=0 / rc_lookahead=40 / rc=crf / mbtree=0 / crf=18.0 / qcomp=0.60 / qpmin=0 / qpmax=69 / qpstep=4 / vbv_maxrate=50000 / vbv_bufsize=45000 / crf_max=0.0 / nal_hrd=none / filler=0 / ip_ratio=1.40 / pb_ratio=1.30 / aq=3:1.00
Default                                  : Yes
Forced                                   : No
Color range                              : Limited
Matrix coefficients                      : BT.709

Audio
ID                                       : 2
Format                                   : DTS
Format/Info                              : Digital Theater Systems
Codec ID                                 : A_DTS
Duration                                 : 1 h 38 min
Bit rate mode                            : Constant
Bit rate                                 : 1 509 kb/s
Channel(s)                               : 6 channels
Channel positions                        : Front: L C R, Side: L R, LFE
Sampling rate                            : 48.0 kHz
Frame rate                               : 93.750 FPS (512 SPF)
Bit depth                                : 24 bits
Compression mode                         : Lossy
Stream size                              : 1.04 GiB (10%)
Language                                 : English
Default                                  : Yes
Forced                                   : No

Text
ID                                       : 3
Format                                   : UTF-8
Codec ID                                 : S_TEXT/UTF8
Codec ID/Info                            : UTF-8 Plain Text
Duration                                 : 1 h 35 min
Bit rate                                 : 41 b/s
Count of elements                        : 1087
Stream size                              : 29.3 KiB (0%)
Language                                 : English
Default                                  : Yes
Forced                                   : No

Menu
00:00:00.000                             : en:00:00:00.000
00:10:50.275                             : en:00:10:50.275
00:22:59.878                             : en:00:22:59.878
00:35:13.903                             : en:00:35:13.903
00:47:32.892                             : en:00:47:32.892
00:58:25.794                             : en:00:58:25.794
01:08:54.964                             : en:01:08:54.964
01:17:40.698                             : en:01:17:40.698
01:27:30.203                             : en:01:27:30.203




                                                                                                                                                                                                        
                                                                                                                                                                                                                                                                                                                                                                                                                                                                                                                                                                                                                                                                                                                                                                                                                         482cb85d7ae0bf12dca96e4f06f6e3d4.zip (52.31 KB, 下载次数: 0)

回复

使用道具 举报

小黑屋|百度云资源论坛 |网站地图

本网站所有资源来自网络,如无意中侵犯了您的权益,请发邮件至 [email protected],立即清除相关链接

GMT+8, 2020-8-4 05:08 , Processed in 0.104611 second(s), 23 queries .

Powered by Discuz! X3.2

© 2001-2013 Comsenz Inc.

快速回复 返回顶部 返回列表