百度云资源论坛

 找回密码
 立即注册
搜索

海星 Starfish.2018.1080p.BluRay.x264.DTS-FGT 9.13GB

[复制链接]
百度云资源 发表于 2020-7-26 11:05:48 | 显示全部楼层 |阅读模式
帖子完整标题:海星 Starfish.2018.1080p.BluRay.x264.DTS-FGT 9.13GB




◎译  名 海星
◎片  名 Starfish
◎年  代 2018
◎产  地 美国
◎类  别 剧情 / 科幻 / 恐怖
◎语  言 英语
◎上映日期 2018-09-21(奇幻电影节) / 2019-03-15(美国)
◎IMDb评分  5.3/10 from 2147 users
◎片  长 89分钟
◎导  演 A.T. White
◎编  剧 A.T. White
◎主  演 维吉尼亚·加德纳 Virginia Gardner
       克里斯蒂娜·马斯特森 Christina Masterson
       Eric Beecroft
       可宜 Natalie Mitchell
       Shannon Hollander
       Elias Brett
       Matthew Thomas Brown


◎标  签 科幻 | 美国 | 2018 | 恐怖 | 惊悚 | 剧情 | 美国电影 | 科幻奇幻

◎简  介   

  一个独特的,亲密的和诚实的描绘一个女孩悲伤的失去她最好的朋友。这恰好发生在我们所知道的世界末日的那一天。
  由黑暗中几个人莫名其妙的对话开始,讲述了女主人公在自己的朋友死去后,无意中发现了朋友生前录制好的录音带,追寻着提示,一步步拯救了世界的故事。但是,真正的灾难却才刚刚开始……
Video
ID                                       : 1
Format                                   : AVC
Format/Info                              : Advanced Video Codec
Format settings                          : CABAC / 4 Ref Frames
Format settings, CABAC                   : Yes
Format settings, Reference frames        : 4 frames
Codec ID                                 : V_MPEG4/ISO/AVC
Duration                                 : 1 h 40 min
Bit rate                                 : 11.5 Mb/s
Width                                    : 1 920 pixels
Height                                   : 820 pixels
Display aspect ratio                     : 2.35:1
Frame rate mode                          : Constant
Frame rate                               : 23.976 (24000/1001/189150) FPS
Color space                              : YUV
Chroma subsampling                       : 4:2:0
Bit depth                                : 8 bits
Scan type                                : Progressive
Bits/(Pixel*Frame)                       : 0.305
Stream size                              : 8.07 GiB (88%)
Title                                    : Starfish.2018.1080p.BluRay.x264.DTS-FGT
Writing library                          : x264 core 148 r2795M aaa9aa8
Encoding settings                        : cabac=1 / ref=4 / deblock=1:-2:-2 / analyse=0x3:0x113 / me=umh / subme=9 / psy=1 / psy_rd=1.00:0.15 / mixed_ref=1 / me_range=16 / chroma_me=1 / trellis=2 / 8x8dct=1 / cqm=0 / deadzone=21,11 / fast_pskip=1 / chroma_qp_offset=-3 / threads=24 / lookahead_threads=3 / sliced_threads=0 / nr=0 / decimate=1 / interlaced=0 / bluray_compat=0 / constrained_intra=0 / bframes=3 / b_pyramid=2 / b_adapt=1 / b_bias=0 / direct=3 / weightb=1 / open_gop=0 / weightp=2 / keyint=250 / keyint_min=25 / scenecut=40 / intra_refresh=0 / rc_lookahead=50 / rc=2pass / mbtree=1 / bitrate=11500 / ratetol=1.0 / qcomp=0.60 / qpmin=0 / qpmax=69 / qpstep=4 / cplxblur=20.0 / qblur=0.5 / vbv_maxrate=31250 / vbv_bufsize=31250 / nal_hrd=none / filler=0 / ip_ratio=1.40 / aq=1:1.00
Language                                 : English
Default                                  : Yes
Forced                                   : No

Audio
ID                                       : 2
Format                                   : DTS
Format/Info                              : Digital Theater Systems
Codec ID                                 : A_DTS
Duration                                 : 1 h 40 min
Bit rate mode                            : Constant
Bit rate                                 : 1 509 kb/s
Channel(s)                               : 6 channels
Channel layout                           : C L R Ls Rs LFE
Sampling rate                            : 48.0 kHz
Frame rate                               : 93.750 FPS (512 SPF)
Bit depth                                : 24 bits
Compression mode                         : Lossy
Stream size                              : 1.06 GiB (12%)
Title                                    : Starfish.2018.1080p.BluRay.x264.DTS-FGT
Language                                 : English
Default                                  : Yes
Forced                                   : No

Text
ID                                       : 3
Format                                   : UTF-8
Codec ID                                 : S_TEXT/UTF8
Codec ID/Info                            : UTF-8 Plain Text
Duration                                 : 1 h 38 min
Bit rate                                 : 22 b/s
Count of elements                        : 626
Stream size                              : 16.2 KiB (0%)
Language                                 : English
Default                                  : Yes
Forced                                   : No

Menu
00:00:00.000                             : en:Chapter 01
00:12:12.273                             : en:Chapter 02
00:24:52.491                             : en:Chapter 03
00:37:52.771                             : en:Chapter 04
00:49:59.079                             : en:Chapter 05
01:01:49.748                             : en:Chapter 06
01:15:44.790                             : en:Chapter 07
01:27:40.672                             : en:Chapter 08




                                                                                                                                                                                                        
                                                                                                                                                                                                                                                                                                                                                                                                                                                                                                                                                                         232fe49657320fd2cfd001da87b6038a.zip (46.3 KB, 下载次数: 0)

回复

使用道具 举报

小黑屋|百度云资源论坛 |网站地图

本网站所有资源来自网络,如无意中侵犯了您的权益,请发邮件至 [email protected],立即清除相关链接

GMT+8, 2020-8-4 07:09 , Processed in 0.098652 second(s), 23 queries .

Powered by Discuz! X3.2

© 2001-2013 Comsenz Inc.

快速回复 返回顶部 返回列表