百度云资源论坛

 找回密码
 立即注册
搜索

士兵复仇记/将士之心 复仇 A.Soldiers.Revenge.2020.720p.BluRay.x264-...

[复制链接]
百度云电影 发表于 2020-7-26 10:45:22 | 显示全部楼层 |阅读模式
帖子完整标题:士兵复仇记/将士之心 复仇 A.Soldiers.Revenge.2020.720p.BluRay.x264-LATENCY 4.63GB




◎译  名 士兵复仇记 / 将士之心 复仇
◎片  名 Soldier's Heart
◎年  代 2020
◎产  地 美国
◎类  别 西部
◎语  言 英语
◎上映日期 2020-06-11(美国)
◎IMDb评分  7.1/10 from 598 users
◎片  长 140分钟
◎导  演 迈克尔·费法 Michael Feifer
◎编  剧 迈克尔·费法 Michael Feifer
◎主  演 尼尔·布莱德森 Neal Bledsoe
       罗勃·梅耶斯 Rob Mayes
       安娜琳·麦考德 AnnaLynne McCord
       方·基默 Val Kilmer
       Jake Busey
       迈克尔·鲍文 Michael Bowen
       Jay Pickett
       迈克·韦尔奇 Michael Welch
       詹姆斯·拉索 James Russo
       卢克·朱迪 Luke Judy


◎标  签 性奴,反转

◎简  介   

  Haunted by wartime horrors, Civil War soldier-turned-bounty-hunter Frank Connor (Neal Bledsoe) spends his time post-war polishing off two things: whiskey and fugitives. When two desperate children arrive on his www.xunleiju.com doorstep and enlist his help to find their missing mother (AnnaLynne McCord), Frank must face his past in order to take down the notorious Major Briggs (Rob Mayes), with whom he has a score all his own to settle.
Video
ID                                       : 1
Format                                   : AVC
Format/Info                              : Advanced Video Codec
Format settings                          : CABAC / 8 Ref Frames
Format settings, CABAC                   : Yes
Format settings, Reference frames        : 8 frames
Codec ID                                 : V_MPEG4/ISO/AVC
Duration                                 : 2 h 19 min
Bit rate                                 : 4 091 kb/s
Width                                    : 1 280 pixels
Height                                   : 544 pixels
Display aspect ratio                     : 2.35:1
Frame rate mode                          : Constant
Frame rate                               : 23.976 (24000/1001/189150) FPS
Color space                              : YUV
Chroma subsampling                       : 4:2:0
Bit depth                                : 8 bits
Scan type                                : Progressive
Bits/(Pixel*Frame)                       : 0.245
Stream size                              : 3.99 GiB (86%)
Writing library                          : x264 core 161 r3018 db0d417
Encoding settings                        : cabac=1 / ref=8 / deblock=1:-3:-3 / analyse=0x3:0 / me=umh / subme=9 / psy=1 / psy_rd=1.00:0.00 / mixed_ref=1 / me_range=16 / chroma_me=1 / trellis=2 / 8x8dct=1 / cqm=0 / deadzone=21,11 / fast_pskip=1 / chroma_qp_offset=-2 / threads=17 / lookahead_threads=2 / sliced_threads=0 / nr=0 / decimate=1 / interlaced=0 / bluray_compat=0 / constrained_intra=0 / bframes=9 / b_pyramid=2 / b_adapt=2 / b_bias=0 / direct=3 / weightb=0 / open_gop=0 / weightp=2 / keyint=250 / keyint_min=23 / scenecut=40 / intra_refresh=0 / rc=crf / mbtree=0 / crf=17.0 / qcomp=0.60 / qpmin=0 / qpmax=69 / qpstep=4 / ip_ratio=1.40 / pb_ratio=1.30 / aq=3:0.88
Default                                  : Yes
Forced                                   : No
Color range                              : Limited
Color primaries                          : BT.709
Transfer characteristics                 : BT.709
Matrix coefficients                      : BT.709

Audio
ID                                       : 2
Format                                   : AC-3
Format/Info                              : Audio Coding 3
Commercial name                          : Dolby Digital
Codec ID                                 : A_AC3
Duration                                 : 2 h 19 min
Bit rate mode                            : Constant
Bit rate                                 : 640 kb/s
Channel(s)                               : 6 channels
Channel layout                           : L R C LFE Ls Rs
Sampling rate                            : 48.0 kHz
Frame rate                               : 31.250 FPS (1536 SPF)
Bit depth                                : 16 bits
Compression mode                         : Lossy
Stream size                              : 640 MiB (13%)
Title                                    : English
Language                                 : English
Service kind                             : Complete Main
Default                                  : No
Forced                                   : No

Text
ID                                       : 3
Format                                   : PGS
Muxing mode                              : zlib
Codec ID                                 : S_HDMV/PGS
Codec ID/Info                            : Picture based subtitle format used on BDs/HD-DVDs
Duration                                 : 2 h 12 min
Bit rate                                 : 28.4 kb/s
Count of elements                        : 2708
Stream size                              : 27.0 MiB (1%)
Title                                    : English
Language                                 : English
Default                                  : No
Forced                                   : No

Menu
00:00:00.000                             : en:Chapter 01
00:13:26.806                             : en:Chapter 02
00:20:39.947                             : en:Chapter 03
00:32:30.991                             : en:Chapter 04
00:44:25.746                             : en:Chapter 05
00:57:17.309                             : en:Chapter 06
01:09:32.043                             : en:Chapter 07
01:17:57.715                             : en:Chapter 08
01:29:27.028                             : en:Chapter 09
01:43:40.339                             : en:Chapter 10
01:59:42.217                             : en:Chapter 11
02:14:32.982                             : en:Chapter 12




                                                                                                                                                                                                        
                                                                                                                                                                                                                                                                                                                                                                                                                                                                                                                                                                                 3387248c8ab2dcedc82c2319f4942d63.zip (47.03 KB, 下载次数: 0)

回复

使用道具 举报

小黑屋|百度云资源论坛 |网站地图

本网站所有资源来自网络,如无意中侵犯了您的权益,请发邮件至 [email protected],立即清除相关链接

GMT+8, 2020-8-4 05:04 , Processed in 0.116730 second(s), 23 queries .

Powered by Discuz! X3.2

© 2001-2013 Comsenz Inc.

快速回复 返回顶部 返回列表