百度云资源论坛

 找回密码
 立即注册
搜索

痛苦与荣耀 Pain.and.Glory.2019.PROPER.720p.BluRay.x264-USURY 5.94GB

[复制链接]
百度云电影 发表于 2020-7-24 10:27:07 | 显示全部楼层 |阅读模式
帖子完整标题:痛苦与荣耀 Pain.and.Glory.2019.PROPER.720p.BluRay.x264-USURY 5.94GB




◎译  名 痛苦与荣耀 / Pain & Glory / 万千痛爱在一身(港)
◎片  名 Dolor y gloria
◎年  代 2019
◎产  地 西班牙 / 法国
◎类  别 剧情 / 同性
◎语  言 西班牙语
◎上映日期 2019-03-13(马德里首映) / 2019-03-22(西班牙) / 2019-05-17(戛纳电影节)
◎IMDb评分  7.6/10 from 43458 users
◎片  长 113分钟
◎导  演 佩德罗·阿莫多瓦 Pedro Almodóvar
◎编  剧 佩德罗·阿莫多瓦 Pedro Almodóvar
◎主  演 安东尼奥·班德拉斯 Antonio Banderas
       阿谢尔·埃特塞安迪亚 Asier Etxeandia
       莱昂纳多·斯巴拉格利亚 Leonardo Sbaraglia
       诺拉·纳瓦斯 Nora Navas
       胡丽叶塔·塞拉诺 Julieta Serrano
       塞萨尔·文森特 César Vicente
       阿瑟·弗洛雷斯 Asier Flores
       佩内洛普·克鲁兹 Penélope Cruz
       塞西莉亚·罗特 Cecilia Roth
       苏西·桑切斯 Susi Sánchez
       劳尔·阿雷瓦洛 Raúl Arévalo
       佩德罗·卡萨布兰科 Pedro Casablanc
       朱利安·洛佩兹 Julián López
       伊娃·马丁 Eva Martín
       马里索尔·穆里尔 Marisol Muriel
       阿古斯丁·阿莫多瓦 Agustín Almodóvar
       沃伦·比蒂 Warren Beatty
       埃丝特·加西亚 Esther García
       米娜 Mina
       玛丽莲·梦露 Marilyn Monroe
       娜塔莉·伍德 Natalie Wood


◎标  签 西班牙 | 同性 | 剧情 | 人生 | 文艺 | 2019 | 传记 | 戛纳

◎简  介   

  佩德罗·阿莫多瓦、安东尼奥·班德拉斯、佩内洛普·克鲁兹将合作新片《痛苦与荣耀》(Dolor y Gloria),7月上半月开拍。和阿莫多瓦上部影片《胡丽叶塔》相反,影片主角将是两名男性,由班德拉斯和阿谢尔·埃特塞安迪亚扮演,克鲁兹和胡丽叶塔·塞拉饰女配,讲述一个处于晚年的电影导演的生活故事,包含初恋、第二次恋爱、母亲、死亡、与他合作过的一些演员,时间跨越60、80年代和现在,一种不适应的空虚感导致他现在无法拍电影。

◎获奖情况  

  第92届奥斯卡金像奖(2020)
  最佳男主角(提名) 安东尼奥·班德拉斯
  最佳国际影片(提名)

  第72届戛纳电影节(2019)
  主竞赛单元 金棕榈奖(提名) 佩德罗·阿莫多瓦
  主竞赛单元 最佳男演员 安东尼奥·班德拉斯
  同志金棕榈奖(提名) 佩德罗·阿莫多瓦

  第77届金球奖(2020)
  电影类 剧情片最佳男主角(提名) 安东尼奥·班德拉斯
  电影类 最佳外语片(提名)

  第73届英国电影学院奖(2020)
  电影奖 最佳非英语片(提名)

  第32届欧洲电影奖(2019)
  观众选择奖(提名)
  最佳影片(提名)
  最佳导演(提名) 佩德罗·阿莫多瓦
  最佳男主角 安东尼奥·班德拉斯
  最佳编剧(提名) 佩德罗·阿莫多瓦
  最佳美术设计

  第45届法国凯撒电影奖(2020)
  最佳外语片(提名)

  第34届西班牙戈雅奖(2020)
  最佳影片
  最佳导演 佩德罗·阿莫多瓦
  最佳男主角 安东尼奥·班德拉斯
  最佳女主角(提名) 佩内洛普·克鲁兹
  最佳男配角(提名) 阿谢尔·埃特塞安迪亚 / 莱昂纳多·斯巴拉格利亚
  最佳女配角 胡丽叶塔·塞拉诺
  最佳原创剧本 佩德罗·阿莫多瓦
  最佳摄影(提名)
  最佳剪辑
  最佳艺术指导(提名)
  最佳制作人(提名)
  最佳音效(提名)
  最佳服装设计(提名)
  最佳化妆与发型(提名)
  最佳原创音乐

  第85届纽约影评人协会奖(2019)
  最佳男主角 安东尼奥·班德拉斯

  第91届美国国家评论协会奖(2019)
  五佳外语片

  第25届美国评论家选择电影奖(2020)
  最佳男主角(提名) 安东尼奥·班德拉斯
  最佳外语片(提名)

  第24届金卫星奖(2020)
  电影部门 最佳导演(提名) 佩德罗·阿莫多瓦
  电影部门 剧情片最佳男主角(提名) 安东尼奥·班德拉斯
  电影部门 最佳女配角(提名) 佩内洛普·克鲁兹
  电影部门 最佳外语片(提名)
  电影部门 最佳原创剧本(提名) 佩德罗·阿莫多瓦

  第23届好莱坞电影奖(2019)
  年度男主角 安东尼奥·班德拉斯

  第54届美国国家影评人协会奖(2020)
  最佳男主角 安东尼奥·班德拉斯

  第40届伦敦影评人协会奖(2020)
  年度电影(提名)
  年度外语片(提名)
  年度导演(提名) 佩德罗·阿莫多瓦
  年度编剧(提名) 佩德罗·阿莫多瓦
  年度男主角(提名) 安东尼奥·班德拉斯

  第45届洛杉矶影评人协会奖(2019)
  最佳男主角 安东尼奥·班德拉斯
  最佳外语片

  第32届芝加哥影评人协会奖(2019)
  最佳男主角(提名) 安东尼奥·班德拉斯
  最佳外语片(提名)

  第4届亚特兰大影评人协会奖(2019)
  十佳影片

  第23届美国在线影评人协会奖(2020)
  最佳男主角(提名) 安东尼奥·班德拉斯
  最佳非英语片(提名)

  第6届豆瓣电影年度榜单(2019)
  年度冷门佳片(提名)
  年度LGBT电影(提名)
Video
ID                                       : 1
Format                                   : AVC
Format/Info                              : Advanced Video Codec
Format settings                          : CABAC / 9 Ref Frames
Format settings, CABAC                   : Yes
Format settings, Reference frames        : 9 frames
Codec ID                                 : V_MPEG4/ISO/AVC
Duration                                 : 1 h 53 min
Bit rate                                 : 6 795 kb/s
Width                                    : 1 280 pixels
Height                                   : 692 pixels
Display aspect ratio                     : 1.85:1
Frame rate mode                          : Constant
Frame rate                               : 23.976 (24000/1001/189150) FPS
Color space                              : YUV
Chroma subsampling                       : 4:2:0
Bit depth                                : 8 bits
Scan type                                : Progressive
Bits/(Pixel*Frame)                       : 0.320
Stream size                              : 5.39 GiB (91%)
Writing library                          : x264 core 160 r3009 4c9b076
Encoding settings                        : cabac=1 / ref=9 / deblock=1:-3:-3 / analyse=0x3:0x133 / me=umh / subme=10 / psy=1 / psy_rd=1.00:0.15 / mixed_ref=1 / me_range=24 / chroma_me=1 / trellis=2 / 8x8dct=1 / cqm=0 / deadzone=21,11 / fast_pskip=1 / chroma_qp_offset=-3 / threads=18 / lookahead_threads=3 / sliced_threads=0 / nr=0 / decimate=1 / interlaced=0 / bluray_compat=0 / constrained_intra=0 / bframes=8 / b_pyramid=2 / b_adapt=2 / b_bias=0 / direct=3 / weightb=1 / open_gop=0 / weightp=2 / keyint=250 / keyint_min=23 / scenecut=40 / intra_refresh=0 / rc_lookahead=60 / rc=crf / mbtree=1 / crf=15.0 / qcomp=0.60 / qpmin=0 / qpmax=69 / qpstep=4 / ip_ratio=1.40 / aq=3:0.60
Language                                 : English
Default                                  : Yes
Forced                                   : No

Audio
ID                                       : 2
Format                                   : AC-3
Format/Info                              : Audio Coding 3
Commercial name                          : Dolby Digital
Codec ID                                 : A_AC3
Duration                                 : 1 h 53 min
Bit rate mode                            : Constant
Bit rate                                 : 640 kb/s
Channel(s)                               : 6 channels
Channel layout                           : L R C LFE Ls Rs
Sampling rate                            : 48.0 kHz
Frame rate                               : 31.250 FPS (1536 SPF)
Bit depth                                : 16 bits
Compression mode                         : Lossy
Stream size                              : 520 MiB (9%)
Language                                 : Spanish
Service kind                             : Complete Main
Default                                  : Yes
Forced                                   : No

Text #1
ID                                       : 3
Format                                   : UTF-8
Codec ID                                 : S_TEXT/UTF8
Codec ID/Info                            : UTF-8 Plain Text
Duration                                 : 1 h 46 min
Bit rate                                 : 63 b/s
Count of elements                        : 1413
Stream size                              : 49.4 KiB (0%)
Title                                    : English
Language                                 : English
Default                                  : Yes
Forced                                   : Yes

Text #2
ID                                       : 4
Format                                   : PGS
Muxing mode                              : zlib
Codec ID                                 : S_HDMV/PGS
Codec ID/Info                            : Picture based subtitle format used on BDs/HD-DVDs
Duration                                 : 1 h 46 min
Bit rate                                 : 19.9 kb/s
Count of elements                        : 2826
Stream size                              : 15.1 MiB (0%)
Title                                    : English
Language                                 : English
Default                                  : No
Forced                                   : No

Text #3
ID                                       : 5
Format                                   : UTF-8
Codec ID                                 : S_TEXT/UTF8
Codec ID/Info                            : UTF-8 Plain Text
Duration                                 : 1 h 49 min
Bit rate                                 : 64 b/s
Count of elements                        : 1543
Stream size                              : 52.1 KiB (0%)
Title                                    : English SDH
Language                                 : English
Default                                  : No
Forced                                   : No

Text #4
ID                                       : 6
Format                                   : PGS
Muxing mode                              : zlib
Codec ID                                 : S_HDMV/PGS
Codec ID/Info                            : Picture based subtitle format used on BDs/HD-DVDs
Duration                                 : 1 h 49 min
Bit rate                                 : 20.4 kb/s
Count of elements                        : 3087
Stream size                              : 16.0 MiB (0%)
Title                                    : English SDH
Language                                 : English
Default                                  : No
Forced                                   : No

Text #5
ID                                       : 7
Format                                   : UTF-8
Codec ID                                 : S_TEXT/UTF8
Codec ID/Info                            : UTF-8 Plain Text
Duration                                 : 1 h 52 min
Bit rate                                 : 55 b/s
Count of elements                        : 1468
Stream size                              : 46.0 KiB (0%)
Title                                    : French
Language                                 : French
Default                                  : No
Forced                                   : No

Text #6
ID                                       : 8
Format                                   : PGS
Muxing mode                              : zlib
Codec ID                                 : S_HDMV/PGS
Codec ID/Info                            : Picture based subtitle format used on BDs/HD-DVDs
Duration                                 : 1 h 52 min
Bit rate                                 : 17.2 kb/s
Count of elements                        : 2936
Stream size                              : 13.9 MiB (0%)
Title                                    : French
Language                                 : French
Default                                  : No
Forced                                   : No

Menu
00:00:00.000                             : en:00:00:00.000
00:07:41.252                             : en:00:07:41.252
00:13:01.406                             : en:00:13:01.406
00:20:06.038                             : en:00:20:06.038
00:30:35.876                             : en:00:30:35.876
00:33:23.418                             : en:00:33:23.418
00:42:03.104                             : en:00:42:03.104
00:50:02.583                             : en:00:50:02.583
00:58:34.219                             : en:00:58:34.219
01:05:11.783                             : en:01:05:11.783
01:09:55.441                             : en:01:09:55.441
01:19:32.893                             : en:01:19:32.893
01:24:26.186                             : en:01:24:26.186
01:30:53.865                             : en:01:30:53.865
01:36:09.180                             : en:01:36:09.180
01:44:48.324                             : en:01:44:48.324




                                                                                                                                                                                                        
                                                                                                                                                                                                                                                                                                          c5c3e9ba6c3b2fc2e949d4bd18b54f82.zip (30.41 KB, 下载次数: 0)

回复

使用道具 举报

小黑屋|百度云资源论坛 |网站地图

本网站所有资源来自网络,如无意中侵犯了您的权益,请发邮件至 [email protected],立即清除相关链接

GMT+8, 2020-8-7 06:02 , Processed in 0.105550 second(s), 23 queries .

Powered by Discuz! X3.2

© 2001-2013 Comsenz Inc.

快速回复 返回顶部 返回列表