百度云资源论坛

 找回密码
 立即注册
搜索

再现康宁汉/肯宁汉 Cunningham.2019.1080p.BluRay.x264-GHOULS 10.65GB

[复制链接]
百度云电影 发表于 2020-7-24 07:45:20 | 显示全部楼层 |阅读模式
帖子完整标题:再现康宁汉/肯宁汉 Cunningham.2019.1080p.BluRay.x264-GHOULS 10.65GB




◎译  名 再现康宁汉 / 肯宁汉
◎片  名 Cunningham
◎年  代 2019
◎产  地 德国 / 法国 / 美国
◎类  别 纪录片
◎语  言 英语
◎上映日期 2019-10-10(伦敦电影节)
◎IMDb评分  6.4/10 from 217 users
◎片  长 93分钟
◎导  演 Alla Kovgan
◎编  剧 Alla Kovgan
◎主  演 John Cage
       Carolyn Brown
       Ashley Chen


◎标  签 纪录片 | 舞蹈 | 德国 | 传记 | 美国 | 藝術家 | 艺术 | 2019

◎简  介   

  The iconic Merce Cunningham and the last generation of his dance company is stunningly profiled in Alla Kovgan's 3D documentary, through recreations of his landmark works and archival footage of Cunningham, John Cage, Robert Rauschenberg.
Video
ID                                       : 1
Format                                   : AVC
Format/Info                              : Advanced Video Codec
Format settings                          : CABAC / 4 Ref Frames
Format settings, CABAC                   : Yes
Format settings, Reference frames        : 4 frames
Codec ID                                 : V_MPEG4/ISO/AVC
Duration                                 : 1 h 28 min
Bit rate                                 : 15.3 Mb/s
Width                                    : 1 920 pixels
Height                                   : 1 038 pixels
Display aspect ratio                     : 1.85:1
Frame rate mode                          : Constant
Frame rate                               : 25.000 FPS
Color space                              : YUV
Chroma subsampling                       : 4:2:0
Bit depth                                : 8 bits
Scan type                                : Progressive
Bits/(Pixel*Frame)                       : 0.307
Stream size                              : 9.50 GiB (89%)
Writing library                          : x264 core 161 r3018 db0d417
Encoding settings                        : cabac=1 / ref=4 / deblock=1:-3:-3 / analyse=0x3:0x133 / me=umh / subme=10 / psy=1 / psy_rd=1.20:0.00 / mixed_ref=1 / me_range=24 / chroma_me=1 / trellis=2 / 8x8dct=1 / cqm=0 / deadzone=21,11 / fast_pskip=0 / chroma_qp_offset=-2 / threads=24 / lookahead_threads=4 / sliced_threads=0 / nr=0 / decimate=0 / interlaced=0 / bluray_compat=0 / constrained_intra=0 / bframes=8 / b_pyramid=2 / b_adapt=2 / b_bias=0 / direct=3 / weightb=1 / open_gop=0 / weightp=2 / keyint=250 / keyint_min=25 / scenecut=40 / intra_refresh=0 / rc=crf / mbtree=0 / crf=16.0 / qcomp=0.60 / qpmin=0 / qpmax=69 / qpstep=4 / ip_ratio=1.40 / pb_ratio=1.30 / aq=3:0.90
Default                                  : Yes
Forced                                   : No
Color range                              : Limited
Matrix coefficients                      : BT.709

Audio
ID                                       : 2
Format                                   : DTS XLL
Format/Info                              : Digital Theater Systems
Commercial name                          : DTS-HD Master Audio
Codec ID                                 : A_DTS
Duration                                 : 1 h 28 min
Bit rate mode                            : Variable
Bit rate                                 : 1 848 kb/s
Channel(s)                               : 6 channels
Channel layout                           : C L R Ls Rs LFE
Sampling rate                            : 48.0 kHz
Frame rate                               : 93.750 FPS (512 SPF)
Bit depth                                : 16 bits
Compression mode                         : Lossless
Stream size                              : 1.15 GiB (11%)
Language                                 : English
Default                                  : Yes
Forced                                   : No

Text
ID                                       : 3
Format                                   : PGS
Muxing mode                              : zlib
Codec ID                                 : S_HDMV/PGS
Codec ID/Info                            : Picture based subtitle format used on BDs/HD-DVDs
Duration                                 : 1 h 27 min
Bit rate                                 : 20.5 kb/s
Count of elements                        : 849
Stream size                              : 12.8 MiB (0%)
Title                                    : SDH
Language                                 : English
Default                                  : No
Forced                                   : No

Menu
00:00:00.000                             : en:Chapter 01
00:08:09.320                             : en:Chapter 02
00:15:45.080                             : en:Chapter 03
00:23:26.880                             : en:Chapter 04
00:32:38.400                             : en:Chapter 05
00:43:25.440                             : en:Chapter 06
00:50:15.400                             : en:Chapter 07
00:55:51.360                             : en:Chapter 08
01:05:54.400                             : en:Chapter 09
01:11:52.480                             : en:Chapter 10
01:18:01.560                             : en:Chapter 11
01:22:45.520                             : en:Chapter 12




                                                                                                                                                                                                        
                                                                                                                                                                                                                                                                                                                                                                                                                                                                                                                                                          0873f83e306790a5da4b231830053b4b.zip (53.96 KB, 下载次数: 0)

回复

使用道具 举报

小黑屋|百度云资源论坛 |网站地图

本网站所有资源来自网络,如无意中侵犯了您的权益,请发邮件至 [email protected],立即清除相关链接

GMT+8, 2020-8-4 08:11 , Processed in 0.101321 second(s), 23 queries .

Powered by Discuz! X3.2

© 2001-2013 Comsenz Inc.

快速回复 返回顶部 返回列表