百度云资源论坛

 找回密码
 立即注册
搜索

爱情热力学定律 The.Laws.of.Thermodynamics.2018.1080p.BluRay.x264-USURY...

[复制链接]
百度云资源 发表于 2020-7-24 07:45:20 | 显示全部楼层 |阅读模式
帖子完整标题:爱情热力学定律 The.Laws.of.Thermodynamics.2018.1080p.BluRay.x264-USURY 7.65GB




◎译  名 爱情热力学定律 / The Laws of Thermodynamics
◎片  名 Las leyes de la termodinámica
◎年  代 2018
◎产  地 西班牙
◎类  别 喜剧
◎语  言 西班牙语
◎上映日期 2018-03-13(迈阿密电影节) / 2018-04-20(西班牙)
◎IMDb评分  6.0/10 from 2303 users
◎片  长 100分钟
◎导  演 马特奥·希尔 Mateo Gil
◎编  剧 马特奥·希尔
◎主  演 Berta Vázquez
       伊琳娜·埃斯柯拉 Irene Escolar
       奇诺·达林 Chino Darín


◎标  签 西班牙 | 爱情 | 喜剧 | 2018 | 西班牙电影 | 科学 | 影片 | Netflix

◎简  介   

  一位物理学家用热力学定律来描述浪漫感情,但他的理论却被自己的爱情生活所证伪。
Video
ID                                       : 1
Format                                   : AVC
Format/Info                              : Advanced Video Codec
Format settings                          : CABAC / 5 Ref Frames
Format settings, CABAC                   : Yes
Format settings, Reference frames        : 5 frames
Codec ID                                 : V_MPEG4/ISO/AVC
Duration                                 : 1 h 40 min
Bit rate                                 : 9 403 kb/s
Width                                    : 1 920 pixels
Height                                   : 808 pixels
Display aspect ratio                     : 2.40:1
Frame rate mode                          : Constant
Frame rate                               : 24.000 FPS
Color space                              : YUV
Chroma subsampling                       : 4:2:0
Bit depth                                : 8 bits
Scan type                                : Progressive
Bits/(Pixel*Frame)                       : 0.253
Stream size                              : 6.59 GiB (86%)
Writing library                          : x264 core 155 r2901 7d0ff22
Encoding settings                        : cabac=1 / ref=5 / deblock=1:-3:-3 / analyse=0x3:0x133 / me=umh / subme=9 / psy=1 / psy_rd=1.00:0.00 / mixed_ref=1 / me_range=16 / chroma_me=1 / trellis=2 / 8x8dct=1 / cqm=0 / deadzone=21,11 / fast_pskip=0 / chroma_qp_offset=-2 / threads=12 / lookahead_threads=1 / sliced_threads=0 / nr=0 / decimate=1 / interlaced=0 / bluray_compat=0 / constrained_intra=0 / bframes=3 / b_pyramid=2 / b_adapt=1 / b_bias=0 / direct=3 / weightb=1 / open_gop=0 / weightp=2 / keyint=240 / keyint_min=24 / scenecut=40 / intra_refresh=0 / rc_lookahead=50 / rc=2pass / mbtree=1 / bitrate=9403 / ratetol=1.0 / qcomp=0.60 / qpmin=0 / qpmax=69 / qpstep=4 / cplxblur=20.0 / qblur=0.5 / ip_ratio=1.40 / aq=1:1.00
Language                                 : English
Default                                  : Yes
Forced                                   : No

Audio
ID                                       : 2
Format                                   : DTS
Format/Info                              : Digital Theater Systems
Codec ID                                 : A_DTS
Duration                                 : 1 h 40 min
Bit rate mode                            : Constant
Bit rate                                 : 1 509 kb/s
Channel(s)                               : 6 channels
Channel layout                           : C L R Ls Rs LFE
Sampling rate                            : 48.0 kHz
Frame rate                               : 93.750 FPS (512 SPF)
Bit depth                                : 24 bits
Compression mode                         : Lossy
Stream size                              : 1.06 GiB (14%)
Language                                 : Spanish
Default                                  : Yes
Forced                                   : No

Text
ID                                       : 3
Format                                   : UTF-8
Codec ID                                 : S_TEXT/UTF8
Codec ID/Info                            : UTF-8 Plain Text
Duration                                 : 1 h 34 min
Bit rate                                 : 66 b/s
Count of elements                        : 1270
Stream size                              : 46.1 KiB (0%)
Title                                    : English
Language                                 : English
Default                                  : Yes
Forced                                   : Yes

Menu
00:00:00.000                             : en:00:00:00.000
00:08:04.292                             : en:00:08:04.292
00:18:43.458                             : en:00:18:43.458
00:26:10.583                             : en:00:26:10.583
00:34:10.042                             : en:00:34:10.042
00:40:22.625                             : en:00:40:22.625
00:50:25.167                             : en:00:50:25.167
00:58:31.000                             : en:00:58:31.000
01:07:07.708                             : en:01:07:07.708
01:15:21.958                             : en:01:15:21.958
01:24:51.000                             : en:01:24:51.000
01:31:39.958                             : en:01:31:39.958




                                                                                                                                                                                                        
                                                                                                                                                                                                                                                                                                                                                                                                                                                                                                                                                                                                                                                                                                                                                                                                               c27b88c551faa2f4c84b61e08d420fe6.zip (77.68 KB, 下载次数: 0)

回复

使用道具 举报

小黑屋|百度云资源论坛 |网站地图

本网站所有资源来自网络,如无意中侵犯了您的权益,请发邮件至 [email protected],立即清除相关链接

GMT+8, 2020-8-4 07:53 , Processed in 0.101682 second(s), 23 queries .

Powered by Discuz! X3.2

© 2001-2013 Comsenz Inc.

快速回复 返回顶部 返回列表