百度云资源论坛

 找回密码
 立即注册
搜索

世纪末 End.of.the.Century.2019.1080p.BluRay.x264-USURY 7.86GB

[复制链接]
百度云电影 发表于 2020-7-24 07:45:20 | 显示全部楼层 |阅读模式
帖子完整标题:世纪末 End.of.the.Century.2019.1080p.BluRay.x264-USURY 7.86GB




◎译  名 世纪末 / End of the Century / 下世纪再爱你(港) / 世纪末遇见你(台) / 预见上個世纪末的你(台)
◎片  名 Fin de siglo
◎年  代 2019
◎产  地 阿根廷
◎类  别 剧情 / 同性
◎语  言 西班牙语 / 加泰罗尼亚语
◎上映日期 2019-03-30(新导演新电影节) / 2019-04-08(布宜诺斯艾利斯国际独立电影节)
◎IMDb评分  6.9/10 from 1636 users
◎片  长 84分钟
◎导  演 卢西奥·卡斯特罗 Lucio Castro
◎编  剧 卢西奥·卡斯特罗 Lucio Castro
◎主  演 胡安·巴贝里尼 Juan Barberini
       拉蒙·普霍尔 Ramon Pujol
       米娅·麦斯特罗 Mía Maestro
       马里亚诺·洛佩兹 Mariano Lopez Seoane
       海伦·西莉亚·卡斯特罗·伍德 Helen Celia Castro-Wood


◎标  签 同性 | 阿根廷 | LGBT | 爱情 | 2019 | 文艺 | 剧情 | 人生

◎简  介   

  30多岁的阿根廷诗人Ocho(巴贝里尼饰)来到西班牙巴塞罗那度假,而从他租住的民宿阳台上,他看到了来自德国柏林的西班牙人Javi(普霍尔饰),这样微妙的距离保持了很久。两人也在沙滩上两度错过,终于在第三次,偶然之下产生关联。这两个在异国相遇的美丽陌生人,不仅了解着当地的历史,他们也在彼此了解的过程中,成为彼此的宿命。
Video
ID                                       : 1
Format                                   : AVC
Format/Info                              : Advanced Video Codec
Format settings                          : CABAC / 4 Ref Frames
Format settings, CABAC                   : Yes
Format settings, Reference frames        : 4 frames
Codec ID                                 : V_MPEG4/ISO/AVC
Duration                                 : 1 h 24 min
Bit rate                                 : 12.0 Mb/s
Width                                    : 1 920 pixels
Height                                   : 940 pixels
Display aspect ratio                     : 2.043
Frame rate mode                          : Constant
Frame rate                               : 24.000 FPS
Color space                              : YUV
Chroma subsampling                       : 4:2:0
Bit depth                                : 8 bits
Scan type                                : Progressive
Bits/(Pixel*Frame)                       : 0.276
Stream size                              : 7.03 GiB (90%)
Writing library                          : x264 core 160 r3000 33f9e14
Encoding settings                        : cabac=1 / ref=4 / deblock=1:-3:-3 / analyse=0x3:0x133 / me=umh / subme=10 / psy=1 / psy_rd=1.00:0.15 / mixed_ref=1 / me_range=24 / chroma_me=1 / trellis=2 / 8x8dct=1 / cqm=0 / deadzone=21,11 / fast_pskip=1 / chroma_qp_offset=-3 / threads=18 / lookahead_threads=3 / sliced_threads=0 / nr=0 / decimate=1 / interlaced=0 / bluray_compat=0 / constrained_intra=0 / bframes=8 / b_pyramid=2 / b_adapt=2 / b_bias=0 / direct=3 / weightb=1 / open_gop=0 / weightp=2 / keyint=250 / keyint_min=24 / scenecut=40 / intra_refresh=0 / rc_lookahead=60 / rc=crf / mbtree=1 / crf=15.0 / qcomp=0.60 / qpmin=0 / qpmax=69 / qpstep=4 / ip_ratio=1.40 / aq=3:0.60
Language                                 : English
Default                                  : Yes
Forced                                   : No
Color range                              : Limited
Matrix coefficients                      : BT.709

Audio #1
ID                                       : 2
Format                                   : FLAC
Format/Info                              : Free Lossless Audio Codec
Codec ID                                 : A_FLAC
Duration                                 : 1 h 24 min
Bit rate mode                            : Variable
Bit rate                                 : 1 298 kb/s
Channel(s)                               : 2 channels
Channel layout                           : L R
Sampling rate                            : 48.0 kHz
Frame rate                               : 11.719 FPS (4096 SPF)
Bit depth                                : 24 bits
Compression mode                         : Lossless
Stream size                              : 781 MiB (10%)
Title                                    : Spanish
Writing library                          : libFLAC 1.2.1 (UTC 2007-09-17)
Language                                 : Spanish
Default                                  : Yes
Forced                                   : No

Audio #2
ID                                       : 3
Format                                   : AAC LC
Format/Info                              : Advanced Audio Codec Low Complexity
Codec ID                                 : A_AAC-2
Duration                                 : 1 h 24 min
Bit rate                                 : 93.0 kb/s
Channel(s)                               : 2 channels
Channel layout                           : L R
Sampling rate                            : 48.0 kHz
Frame rate                               : 46.875 FPS (1024 SPF)
Compression mode                         : Lossy
Delay relative to video                  : 9 ms
Stream size                              : 55.9 MiB (1%)
Title                                    : English Commentary with Director Lucio Castro and Composer Robert Lombardo
Language                                 : English
Default                                  : No
Forced                                   : No

Text #1
ID                                       : 4
Format                                   : UTF-8
Codec ID                                 : S_TEXT/UTF8
Codec ID/Info                            : UTF-8 Plain Text
Duration                                 : 1 h 6 min
Bit rate                                 : 42 b/s
Count of elements                        : 555
Stream size                              : 20.5 KiB (0%)
Title                                    : English
Language                                 : English
Default                                  : Yes
Forced                                   : Yes

Text #2
ID                                       : 5
Format                                   : PGS
Muxing mode                              : zlib
Codec ID                                 : S_HDMV/PGS
Codec ID/Info                            : Picture based subtitle format used on BDs/HD-DVDs
Duration                                 : 1 h 6 min
Bit rate                                 : 13.4 kb/s
Count of elements                        : 1110
Stream size                              : 6.39 MiB (0%)
Title                                    : English
Language                                 : English
Default                                  : No
Forced                                   : No

Menu
00:00:00.000                             : en:00:00:00.000
00:08:04.792                             : en:00:08:04.792
00:16:16.500                             : en:00:16:16.500
00:23:47.250                             : en:00:23:47.250
00:31:24.542                             : en:00:31:24.542
00:39:55.375                             : en:00:39:55.375
00:49:01.625                             : en:00:49:01.625
00:56:25.375                             : en:00:56:25.375
01:05:30.458                             : en:01:05:30.458
01:11:18.917                             : en:01:11:18.917
01:20:05.292                             : en:01:20:05.292
01:23:00.500                             : en:01:23:00.500




                                                                                                                                                                                                        
                                                                                                                                                                                                                                                                                                                                     45b07de726e38c2f8853e9dfc3ffb57f.zip (40.45 KB, 下载次数: 0)

回复

使用道具 举报

小黑屋|百度云资源论坛 |网站地图

本网站所有资源来自网络,如无意中侵犯了您的权益,请发邮件至 [email protected],立即清除相关链接

GMT+8, 2020-8-4 07:13 , Processed in 0.107461 second(s), 23 queries .

Powered by Discuz! X3.2

© 2001-2013 Comsenz Inc.

快速回复 返回顶部 返回列表