百度云资源论坛

 找回密码
 立即注册
搜索

篮球冠军 Champions.2018.1080p.BluRay.x264-USURY 8.75GB

[复制链接]
百度云资源 发表于 2020-7-24 07:45:20 | 显示全部楼层 |阅读模式
帖子完整标题:篮球冠军 Champions.2018.1080p.BluRay.x264-USURY 8.75GB




◎译  名 篮球冠军 / Champions / 冠军 / 我和我的冠军篮球队(台) / 我要做篮神(港)
◎片  名 Campeones
◎年  代 2018
◎产  地 西班牙
◎类  别 剧情 / 喜剧 / 运动
◎语  言 西班牙语
◎上映日期 2018-04-03(西班牙) / 2019-03-22(中国大陆)
◎IMDb评分  7.2/10 from 8273 users
◎片  长 124分钟
◎导  演 哈维尔·费舍尔 Javier Fesser
◎编  剧 David Marqués / 哈维尔·费舍尔 Javier Fesser
◎主  演 哈维尔·古铁雷斯 Javier Gutiérrez
       Athenea Mata
       胡安·马加略 Juan Margallo
       路易莎·加瓦萨 Luisa Gavasa
       路易斯·贝尔梅河 Luis Bermejo
       丹尼尔弗莱雷 Daniel Freire
       Julio Fernández
       吉尔·维森特 Vicente Gil
       伊西娅尔·卡斯特罗 Itziar Castro
       查尼·马丁 Chani Martín
       哈维尔·费舍尔 Javier Fesser


◎标  签 西班牙 | 喜剧 | 篮球 | 温情 | 运动 | 残障 | 体育 | 2018

◎简  介   

  马尔科(哈维尔·古铁雷斯 Javier Gutiérrez 饰)是西班牙职业篮球甲级联赛中的第二教练,个性向来傲慢无礼的他,因为和球队的第一教练之间爆发了激烈的争吵而惨遭球队解雇。之后,靠喝酒来抒发心中郁闷情绪的马尔科驾车撞倒了一辆警车,并且最终成功的将自己弄进了警察局。
  法官给了马尔科两个选择,要么坐牢两年,要么去社区服务一个半月,马尔科毫不犹豫的选择了后者。就这样,马尔科成为了一支名为“Los Amigos”的球队的教练,这支球队里的选手全部都是精神残障者,而帮助马尔科训练的,是名叫朱里奥(胡安·马加略 Juan Margallo 饰)的老者。在解决自己的职业麻烦的同时,马尔科还需要修复自己和妻子之间的关系。

◎获奖情况  

  第33届西班牙戈雅奖(2019)
  最佳影片
  最佳导演(提名) 哈维尔·费舍尔
  最佳男主角(提名) 哈维尔·古铁雷斯
  最佳男配角(提名) 胡安·马加略
  最佳新人男演员 杰斯·维达尔
  最佳新人女演员(提名) 格洛里亚·拉莫斯
  最佳原创剧本(提名) 哈维尔·费舍尔 / 大卫·马尔克斯
  最佳剪辑(提名)
  最佳制作人(提名)
  最佳音效(提名)
  最佳原创歌曲
Video
ID                                       : 1
Format                                   : AVC
Format/Info                              : Advanced Video Codec
Format settings                          : CABAC / 5 Ref Frames
Format settings, CABAC                   : Yes
Format settings, Reference frames        : 5 frames
Codec ID                                 : V_MPEG4/ISO/AVC
Duration                                 : 2 h 4 min
Bit rate                                 : 8 569 kb/s
Width                                    : 1 920 pixels
Height                                   : 808 pixels
Display aspect ratio                     : 2.40:1
Frame rate mode                          : Constant
Frame rate                               : 24.000 FPS
Color space                              : YUV
Chroma subsampling                       : 4:2:0
Bit depth                                : 8 bits
Scan type                                : Progressive
Bits/(Pixel*Frame)                       : 0.230
Stream size                              : 7.43 GiB (85%)
Writing library                          : x264 core 155 r2901 7d0ff22
Encoding settings                        : cabac=1 / ref=5 / deblock=1:-3:-3 / analyse=0x3:0x133 / me=umh / subme=9 / psy=1 / psy_rd=1.00:0.00 / mixed_ref=1 / me_range=16 / chroma_me=1 / trellis=2 / 8x8dct=1 / cqm=0 / deadzone=21,11 / fast_pskip=0 / chroma_qp_offset=-2 / threads=24 / lookahead_threads=2 / sliced_threads=0 / nr=0 / decimate=1 / interlaced=0 / bluray_compat=0 / constrained_intra=0 / bframes=3 / b_pyramid=2 / b_adapt=1 / b_bias=0 / direct=3 / weightb=1 / open_gop=0 / weightp=2 / keyint=240 / keyint_min=24 / scenecut=40 / intra_refresh=0 / rc_lookahead=50 / rc=2pass / mbtree=1 / bitrate=8569 / ratetol=1.0 / qcomp=0.60 / qpmin=0 / qpmax=69 / qpstep=4 / cplxblur=20.0 / qblur=0.5 / ip_ratio=1.40 / aq=1:1.00
Language                                 : English
Default                                  : Yes
Forced                                   : No

Audio
ID                                       : 2
Format                                   : DTS
Format/Info                              : Digital Theater Systems
Codec ID                                 : A_DTS
Duration                                 : 2 h 4 min
Bit rate mode                            : Constant
Bit rate                                 : 1 509 kb/s
Channel(s)                               : 6 channels
Channel layout                           : C L R Ls Rs LFE
Sampling rate                            : 48.0 kHz
Frame rate                               : 93.750 FPS (512 SPF)
Bit depth                                : 24 bits
Compression mode                         : Lossy
Stream size                              : 1.31 GiB (15%)
Language                                 : Spanish
Default                                  : Yes
Forced                                   : No

Text
ID                                       : 3
Format                                   : UTF-8
Codec ID                                 : S_TEXT/UTF8
Codec ID/Info                            : UTF-8 Plain Text
Duration                                 : 1 h 57 min
Bit rate                                 : 61 b/s
Count of elements                        : 1571
Stream size                              : 52.8 KiB (0%)
Title                                    : English
Language                                 : English
Default                                  : Yes
Forced                                   : Yes

Menu
00:00:00.000                             : en:00:00:00.000
00:08:06.000                             : en:00:08:06.000
00:18:35.667                             : en:00:18:35.667
00:29:19.708                             : en:00:29:19.708
00:38:06.125                             : en:00:38:06.125
00:51:25.542                             : en:00:51:25.542
01:01:01.958                             : en:01:01:01.958
01:11:01.000                             : en:01:11:01.000
01:24:40.667                             : en:01:24:40.667
01:31:17.542                             : en:01:31:17.542
01:38:03.333                             : en:01:38:03.333
01:51:20.125                             : en:01:51:20.125




                                                                                                                                                                                                        
                                                                                                                                                                                                                                                                                                                                                                                                                                                                                                                                                             44d3eb5c43c186d36782ba9b719a60cd.zip (88.13 KB, 下载次数: 0)

回复

使用道具 举报

小黑屋|百度云资源论坛 |网站地图

本网站所有资源来自网络,如无意中侵犯了您的权益,请发邮件至 [email protected],立即清除相关链接

GMT+8, 2020-8-4 08:10 , Processed in 0.129809 second(s), 23 queries .

Powered by Discuz! X3.2

© 2001-2013 Comsenz Inc.

快速回复 返回顶部 返回列表