百度云资源论坛

 找回密码
 立即注册
搜索

你能原谅我吗?/大老作家 Can.You.Ever.Forgive.Me.2018.1080p.BluRay....

[复制链接]
百度云资源 发表于 2020-9-16 11:09:02 | 显示全部楼层 |阅读模式
帖子完整标题:你能原谅我吗?/大老作家 Can.You.Ever.Forgive.Me.2018.1080p.BluRay.X264-AMIABLE 10.94GB




◎译  名 你能原谅我吗?/大老作家(港)/她的伪造游戏(台)
◎片  名 Can You Ever Forgive Me?
◎年  代 2018
◎产  地 美国
◎类  别 剧情 / 喜剧 / 传记 / 犯罪
◎语  言 英语
◎上映日期 2018-09-01(特柳赖德电影节) / 2018-10-19(美国)
◎片  长 106分钟
◎导  演 玛丽埃尔·海勒 Marielle Heller
◎编  剧 妮可·哈罗芬瑟 Nicole Holofcener / 杰夫·惠蒂 Jeff Whitty
◎主  演 梅丽莎·麦卡西 Melissa McCarthy
       理查德·E·格兰特 Richard E. Grant
       多莉·韦尔斯 Dolly Wells
       本·法尔科内 Ben Falcone
       格里高利·克洛斯蒂舍夫斯基 Gregory Korostishevsky
       简·库丁 Jane Curtin
       斯蒂芬·斯皮内拉 Stephen Spinella
       克里斯蒂安·纳瓦罗 Christian Navarro
       普·班德赫 Pun Bandhu
       埃里克·拉雷·哈维 Erik LaRay Harvey
       布兰登·斯科特·琼斯 Brandon Scott Jones
       雪伊·德林恩 Shae D'lyn
       罗莎尔·卡农 Rosal Colon
       安娜·迪佛·史密斯 Anna Deavere Smith
       马克·埃文·杰克逊 Marc Evan Jackson
       Marcella Lowery
       罗伯塔·瓦拉赫 Roberta Wallach
       蒂娜·本科 Tina Benko
       乔安娜·阿德勒 Joanna Adler
       迈克尔·西里尔·克赖顿 Michael Cyril Creighton
       爱丽丝·克雷梅尔堡 Alice Kremelberg
       露西·德维托 Lucy DeVito
       贾斯汀·邦德 Justin Bond
       马米·科西科 Marmee Cosico
       扎布丽娜·格瓦拉 Zabryna Guevara
       Ron Maestri
       阿曼德·里斯科 Armando Riesco
       Liz Eng
       桃乐丝·麦卡锡 Doris McCarthy
       Bill Walters
       朱莉·安·埃默里 Julie Ann Emery
       詹妮弗·威斯菲尔德  Jennifer Westfeldt

◎标  签 美国 | 传记 | 女性 | 剧情 | 2018 | 犯罪 | 文学作品改编 | 喜剧

◎简  介

  梅丽莎·麦卡西将出演影片《你能原谅我吗》(Can You Ever Forgive Me?,暂译)。导演玛丽埃尔·海勒,编剧妮可·哈罗芬瑟,影片根据李·伊瑟列尔同名回忆录改编。故事围绕传记作家李·伊瑟列尔(梅丽莎·麦卡西饰)伪造名人书信出售等事件展开。影片将于明年年初开机。

◎获奖情况

  第91届奥斯卡金像奖 ?(2019)
  最佳女主角(提名) 梅丽莎·麦卡西
  最佳男配角(提名) 理查德·E·格兰特
  最佳改编剧本(提名) 妮可·哈罗芬瑟?/?杰夫·惠蒂
  
  第76届金球奖 ?(2019)
  电影类剧情片最佳女主角(提名) 梅丽莎·麦卡西
  电影类最佳男配角(提名) 理查德·E·格兰特
  
  第72届英国电影学院奖 ?(2019)
  电影奖最佳女主角(提名) 梅丽莎·麦卡西
  电影奖最佳男配角(提名) 理查德·E·格兰特
  电影奖最佳改编剧本(提名) 妮可·哈罗芬瑟?/?杰夫·惠蒂
  
  第39届金酸莓奖 ?(2019)
  最佳赎莓奖 梅丽莎·麦卡西
  
  第25届美国演员工会奖 ?(2019)
  电影奖最佳女主角(提名) 梅丽莎·麦卡西
  电影奖最佳男配角(提名) 理查德·E·格兰特
  
  第71届美国编剧工会奖 ?(2019)
  电影奖最佳改编剧本 妮可·哈罗芬瑟?/?杰夫·惠蒂
  
  第84届纽约影评人协会奖 ?(2018)
  最佳男配角 理查德·E·格兰特
  
  第90届美国国家评论协会奖 ?(2018)
  年度佳片
  
  第24届美国评论家选择电影奖 ?(2019)
  最佳女主角(提名) 梅丽莎·麦卡西
  最佳男配角(提名) 理查德·E·格兰特
  最佳改编剧本(提名) 妮可·哈罗芬瑟?/?杰夫·惠蒂
  
  第34届美国独立精神奖 ?(2019)
  最佳男配角 理查德·E·格兰特
  最佳剧本 妮可·哈罗芬瑟?/?杰夫·惠蒂
  
  第28届哥谭独立电影奖 ?(2018)
  最佳男演员(提名) 理查德·E·格兰特
  
  第23届金卫星奖 ?(2019)
  电影部门剧情片最佳女主角(提名) 梅丽莎·麦卡西
  电影部门最佳男配角 理查德·E·格兰特
  电影部门最佳改编剧本 妮可·哈罗芬瑟?/?杰夫·惠蒂
  
  第53届美国国家影评人协会奖 ?(2019)
  最佳女主角(提名) 梅丽莎·麦卡西
  最佳男配角(提名) 理查德·E·格兰特
  最佳剧本(提名) 妮可·哈罗芬瑟?/?杰夫·惠蒂
  
  第17届华盛顿影评人协会奖 ?(2018)
  最佳女主角(提名) 梅丽莎·麦卡西
  最佳男配角(提名) 理查德·E·格兰特
  最佳改编剧本 妮可·哈罗芬瑟?/?杰夫·惠蒂
  
  第39届伦敦影评人协会奖 ?(2019)
  年度男配角 理查德·E·格兰特
  年度英国/爱尔兰男演员(提名) 理查德·E·格兰特
  
  第39届波士顿影评人协会奖 ?(2018)
  最佳女主角 梅丽莎·麦卡西
  最佳男配角 理查德·E·格兰特
  最佳剧本
  
  第44届洛杉矶影评人协会奖 ?(2018)
  最佳剧本 妮可·哈罗芬瑟?/?杰夫·惠蒂
  
  第31届芝加哥影评人协会奖 ?(2018)
  最佳女主角(提名) 梅丽莎·麦卡西
  最佳男配角 理查德·E·格兰特
  最佳改编剧本(提名) 妮可·哈罗芬瑟?/?杰夫·惠蒂
  
  第17届旧金山影评人协会奖 ?(2018)
  最佳女主角 梅丽莎·麦卡西
  最佳男配角(提名) 理查德·E·格兰特
  最佳改编剧本(提名) 妮可·哈罗芬瑟?/?杰夫·惠蒂
  
  第18届温哥华影评人协会奖 ?(2018)
  最佳女主角 梅丽莎·麦卡西
  最佳男配角 理查德·E·格兰特
  
  第52届堪萨斯影评人协会奖 ?(2018)
  最佳男配角 理查德·E·格兰特
  最佳改编剧本(提名)
  最佳LGBTQ影片
  
  第18届凤凰城影评人协会奖 ?(2018)
  最佳改编剧本
  
  第22届美国在线影评人协会奖 ?(2019)
  最佳男配角(提名) 理查德·E·格兰特
  最佳改编剧本(提名) 妮可·哈罗芬瑟?/?杰夫·惠蒂
Video
ID                                       : 1
Format                                   : AVC
Format/Info                              : Advanced Video Codec
Format settings                          : CABAC / 5 Ref Frames
Format settings, CABAC                   : Yes
Format settings, Reference frames        : 5 frames
Codec ID                                 : V_MPEG4/ISO/AVC
Duration                                 : 1 h 46 min
Bit rate                                 : 13.2 Mb/s
Width                                    : 1 920 pixels
Height                                   : 800 pixels
Display aspect ratio                     : 2.40:1
Frame rate mode                          : Constant
Frame rate                               : 23.976 (24000/1001/189150) FPS
Color space                              : YUV
Chroma subsampling                       : 4:2:0
Bit depth                                : 8 bits
Scan type                                : Progressive
Bits/(Pixel*Frame)                       : 0.358
Stream size                              : 9.58 GiB (88%)
Writing library                          : x264 core 157 r2969 d4099dd
Encoding settings                        : cabac=1 / ref=5 / deblock=1:-3:-3 / analyse=0x3:0x113 / me=umh / subme=8 / psy=1 / psy_rd=1.00:0.00 / mixed_ref=1 / me_range=32 / chroma_me=1 / trellis=2 / 8x8dct=1 / cqm=0 / deadzone=21,11 / fast_pskip=1 / chroma_qp_offset=-2 / threads=25 / lookahead_threads=4 / sliced_threads=0 / nr=0 / decimate=1 / interlaced=0 / bluray_compat=0 / constrained_intra=0 / bframes=3 / b_pyramid=2 / b_adapt=2 / b_bias=0 / direct=3 / weightb=1 / open_gop=0 / weightp=2 / keyint=240 / keyint_min=24 / scenecut=40 / intra_refresh=0 / rc_lookahead=50 / rc=2pass / mbtree=1 / bitrate=13200 / ratetol=1.0 / qcomp=0.60 / qpmin=0 / qpmax=69 / qpstep=4 / cplxblur=20.0 / qblur=0.5 / ip_ratio=1.40 / aq=3:0.75
Default                                  : Yes
Forced                                   : No
Statistics Tags Issue                    : no_variable_data 1970-01-01 00:00:00 / no_variable_data 2010-02-22 21:41:29
FromStats_BitRate                        : 13175984
FromStats_Duration                       : 01:46:22.835000000
FromStats_FrameCount                     : 153035
FromStats_StreamSize                     : 10512516955

Audio
ID                                       : 2
Format                                   : DTS
Format/Info                              : Digital Theater Systems
Codec ID                                 : A_DTS
Duration                                 : 1 h 46 min
Bit rate mode                            : Constant
Bit rate                                 : 1 509 kb/s
Channel(s)                               : 6 channels
Channel layout                           : C L R Ls Rs LFE
Sampling rate                            : 48.0 kHz
Frame rate                               : 93.750 FPS (512 SPF)
Bit depth                                : 24 bits
Compression mode                         : Lossy
Stream size                              : 1.12 GiB (10%)
Language                                 : English
Default                                  : Yes
Forced                                   : No
Statistics Tags Issue                    : no_variable_data 1970-01-01 00:00:00 / no_variable_data 2010-02-22 21:41:29
FromStats_BitRate                        : 1508999
FromStats_Duration                       : 01:46:22.838000000
FromStats_FrameCount                     : 598391
FromStats_StreamSize                     : 1203962692

Text #1
ID                                       : 3
Format                                   : UTF-8
Codec ID                                 : S_TEXT/UTF8
Codec ID/Info                            : UTF-8 Plain Text
Language                                 : English
Default                                  : No
Forced                                   : No
Statistics Tags Issue                    : no_variable_data 1970-01-01 00:00:00 / no_variable_data 2010-02-22 21:41:29
FromStats_BitRate                        : 61
FromStats_Duration                       : 01:45:13.891000000
FromStats_FrameCount                     : 1624
FromStats_StreamSize                     : 48649

Text #2
ID                                       : 4
Format                                   : UTF-8
Codec ID                                 : S_TEXT/UTF8
Codec ID/Info                            : UTF-8 Plain Text
Title                                    : SDH
Language                                 : English
Default                                  : No
Forced                                   : No
Statistics Tags Issue                    : no_variable_data 1970-01-01 00:00:00 / no_variable_data 2010-02-22 21:41:29
FromStats_BitRate                        : 67
FromStats_Duration                       : 01:45:28.364000000
FromStats_FrameCount                     : 1812
FromStats_StreamSize                     : 53065

Menu
00:00:00.000                             : en:Chapter 01
00:05:35.627                             : en:Chapter 02
00:11:12.338                             : en:Chapter 03
00:16:57.475                             : en:Chapter 04
00:23:21.650                             : en:Chapter 05
00:26:36.678                             : en:Chapter 06
00:32:00.710                             : en:Chapter 07
00:37:40.091                             : en:Chapter 08
00:42:34.177                             : en:Chapter 09
00:46:02.843                             : en:Chapter 10
00:49:25.421                             : en:Chapter 11
00:55:57.938                             : en:Chapter 12
00:58:12.656                             : en:Chapter 13
01:01:07.497                             : en:Chapter 14
01:03:36.354                             : en:Chapter 15
01:07:19.953                             : en:Chapter 16
01:12:42.858                             : en:Chapter 17
01:16:16.947                             : en:Chapter 18
01:21:52.783                             : en:Chapter 19
01:24:47.708                             : en:Chapter 20
01:26:40.028                             : en:Chapter 21
01:30:46.524                             : en:Chapter 22
01:36:27.907                             : en:Chapter 23
01:38:58.182                             : en:Chapter 24




                                                                                                                                                                                                        


718199c600f716876b379563502ac208.zip (56.3 KB, 下载次数: 0)

回复

使用道具 举报

小黑屋|百度云资源论坛 |网站地图

本网站所有资源来自网络,如无意中侵犯了您的权益,请发邮件至 [email protected],立即清除相关链接

GMT+8, 2020-9-29 08:36 , Processed in 0.097805 second(s), 23 queries .

Powered by Discuz! X3.2

© 2001-2013 Comsenz Inc.

快速回复 返回顶部 返回列表