百度云资源论坛

 找回密码
 立即注册
搜索

祖孙大战 The.War.With.Grandpa.2020.720p.BluRay.x264.DTS-FGT 4.81GB

[复制链接]
百度云电影 发表于 2020-9-16 10:53:46 | 显示全部楼层 |阅读模式
-->
帖子完整标题:祖孙大战 The.War.With.Grandpa.2020.720p.BluRay.x264.DTS-FGT 4.81GB




◎译  名 祖孙大战/Roomies/War with Grandpa/与爷爷开战/祖父大战/阿公当家(台)
◎片  名 The War with Grandpa
◎年  代 2020
◎产  地 美国
◎类  别 喜剧
◎语  言 英语
◎上映日期 2020-08-27(乌克兰) / 2020-10-09(美国)
◎IMDb评分  5.3/10 from 2528 users
◎片  长 94分钟
◎导  演 蒂姆·希尔 Tim Hill
◎编  剧 汤姆·J·阿瑟尔 Tom J. Astle / 马特·恩贝尔 Matt Ember / 莉萨·达达里奥 Lisa Addario
◎主  演 罗伯特·德尼罗 Robert De Niro
       乌玛·瑟曼 Uma Thurman
       劳拉·马兰洛 Laura Marano
       简·西摩 Jane Seymour
       克里斯托弗·沃肯 Christopher Walken
       科林·福特 Colin Ford
       罗伯·里格尔 Rob Riggle
       切奇·马林 Cheech Marin
       奥克斯·费格雷 Oakes Fegley
       德鲁·谢伊德 Drew Scheid
       维罗妮卡·阿利奇诺 Veronica Alicino
       T·J·麦吉本 T.J. McGibbon
       肯德里克·克罗斯 Kendrick Cross
       胡利奥塞萨尔·查韦斯 Juliocesar Chavez
       詹姆斯·马丁·凯利 James Martin Kelly
       盖奇·劳森 Gage Lawson
       康纳·默多克 Connor Murdock

◎标  签 喜剧 | 美国 | 罗伯特·德尼罗 | 家庭 | 2020 | 美国电影 | 沃肯 | walken爷爷

◎简  介

  影片改编自罗伯特·金梅尔·史密斯1984年出版的同名童书,故事围绕一个小男孩的“卧室保卫战”展开。
Video
ID                                       : 1
Format                                   : AVC
Format/Info                              : Advanced Video Codec
Format settings                          : CABAC / 4 Ref Frames
Format settings, CABAC                   : Yes
Format settings, Reference frames        : 4 frames
Codec ID                                 : V_MPEG4/ISO/AVC
Duration                                 : 1 h 38 min
Bit rate                                 : 5 500 kb/s
Width                                    : 1 280 pixels
Height                                   : 690 pixels
Display aspect ratio                     : 1.85:1
Original display aspect ratio            : 1.85:1
Frame rate mode                          : Constant
Frame rate                               : 24.000 FPS
Color space                              : YUV
Chroma subsampling                       : 4:2:0
Bit depth                                : 8 bits
Scan type                                : Progressive
Bits/(Pixel*Frame)                       : 0.259
Stream size                              : 3.77 GiB (78%)
Title                                    : The.War.With.Grandpa.2020.720p.BluRay.x264.DTS-FGT
Writing library                          : x264 core 148 r2795M aaa9aa8
Encoding settings                        : cabac=1 / ref=4 / deblock=1:-2:-2 / analyse=0x3:0x113 / me=umh / subme=9 / psy=1 / psy_rd=1.00:0.15 / mixed_ref=1 / me_range=16 / chroma_me=1 / trellis=2 / 8x8dct=1 / cqm=0 / deadzone=21,11 / fast_pskip=1 / chroma_qp_offset=-3 / threads=24 / lookahead_threads=3 / sliced_threads=0 / nr=0 / decimate=1 / interlaced=0 / bluray_compat=0 / constrained_intra=0 / bframes=3 / b_pyramid=2 / b_adapt=1 / b_bias=0 / direct=3 / weightb=1 / open_gop=0 / weightp=2 / keyint=250 / keyint_min=25 / scenecut=40 / intra_refresh=0 / rc_lookahead=50 / rc=2pass / mbtree=1 / bitrate=5500 / ratetol=1.0 / qcomp=0.60 / qpmin=0 / qpmax=69 / qpstep=4 / cplxblur=20.0 / qblur=0.5 / vbv_maxrate=31250 / vbv_bufsize=31250 / nal_hrd=none / filler=0 / ip_ratio=1.40 / aq=1:1.00
Language                                 : English
Default                                  : Yes
Forced                                   : No

Audio
ID                                       : 2
Format                                   : DTS
Format/Info                              : Digital Theater Systems
Codec ID                                 : A_DTS
Duration                                 : 1 h 38 min
Bit rate mode                            : Constant
Bit rate                                 : 1 509 kb/s
Channel(s)                               : 6 channels
Channel layout                           : C L R Ls Rs LFE
Sampling rate                            : 48.0 kHz
Frame rate                               : 93.750 FPS (512 SPF)
Bit depth                                : 16 bits
Compression mode                         : Lossy
Stream size                              : 1.03 GiB (22%)
Title                                    : The.War.With.Grandpa.2020.720p.BluRay.x264.DTS-FGT
Language                                 : English
Default                                  : Yes
Forced                                   : No

Menu
00:00:00.000                             : en:Chapter 01
00:07:50.542                             : en:Chapter 02
00:15:13.833                             : en:Chapter 03
00:22:51.875                             : en:Chapter 04
00:31:50.833                             : en:Chapter 05
00:39:59.250                             : en:Chapter 06
00:46:21.500                             : en:Chapter 07
00:51:08.917                             : en:Chapter 08
00:58:39.917                             : en:Chapter 09
01:04:17.958                             : en:Chapter 10
01:11:56.667                             : en:Chapter 11
01:22:03.875                             : en:Chapter 12






4f1d914e07e72ac0ba35dfee8e62099d.zip (48.73 KB, 下载次数: 0)

回复

使用道具 举报

小黑屋|百度云资源论坛 |网站地图

本网站所有资源来自网络,如无意中侵犯了您的权益,请发邮件至 [email protected],立即清除相关链接

GMT+8, 2020-10-21 15:25 , Processed in 0.107169 second(s), 23 queries .

Powered by Discuz! X3.2

© 2001-2013 Comsenz Inc.

快速回复 返回顶部 返回列表