百度云资源论坛

 找回密码
 立即注册
搜索

血溅摩天楼/海市蜃楼 Mirage.1965.720p.BluRay.x264-JustWatch 6.95GB

[复制链接]
百度云电影 发表于 2020-9-11 12:52:57 | 显示全部楼层 |阅读模式
帖子完整标题:血溅摩天楼/海市蜃楼 Mirage.1965.720p.BluRay.x264-JustWatch 6.95GB




◎译  名 血溅摩天楼/海市蜃楼
◎片  名 Mirage
◎年  代 1965
◎产  地 美国
◎类  别 悬疑 / 惊悚
◎语  言 英语
◎上映日期 1965-05-26
◎IMDb评分  7.3/10 from 4192 users
◎片  长 108 分钟
◎导  演 爱德华·迪麦特雷克 Edward Dmytryk
◎编  剧 皮特·斯通 Peter Stone / 霍华德·法斯特 Howard Fast
◎主  演 Howard Wendell
       Damian O'Flynn
       Karen Norris
       芭芭拉·佩里 Barbara Perry
       Pat Ripley
       Joe Quinn
       哈里·罗兹 Hari Rhodes
       Victor Romito
       安妮西摩 Anne Seymour
       沃尔特·里德 Walter Reed
       比尔·奎因 Bill Quinn
       Russell Baker
       Aline Towne
       Nancy Tribush
       杰克韦斯顿 Jack Weston
       豪斯·詹姆森 House Jameson
       Philip Kenneally
       利夫·埃里克森 Leif Erickson
       迈伦·希里 Myron Healey
       乔治·肯尼迪 George Kennedy
       比尔·鲍德温 Bill Baldwin
       黛安·贝克 Diane Baker
       格利高里·派克 Gregory Peck
       沃尔特·马修 Walter Matthau
       安·多兰 Ann Doran
       沃尔特·艾贝尔 Walter Abel
       富兰克林·科弗 Franklin Cover
       Robert Brubaker
       罗登·克拉克 Roydon Clark
       Syl Lamont
       Gerald Gordon
       Jerry Dunphy
       罗伯特哈里斯 Robert H. Harris
       Rian Garrick
       Harry Fleer
       Neil Fitzgerald
       Douglas Evans
       Maurice Brenner
       凯文·麦卡锡 Kevin McCarthy

◎标  签 美国 | 悬疑 | 美国电影 | Edward_Dmytryk | Gregory_Peck | 1965 | 格里高利·派克 | Walter_Matthau

◎简  介

  在一次办公室大停电之后,会计师大卫(葛雷哥莱毕克)发现自己精神恍惚的走在纽约摩天大楼的楼梯间,几乎不记得自己是谁、曾去过哪裡,更离奇的是,在这段期间,一个男人自27楼坠落离奇身亡。从此之后,大卫所遇见的每一件事,似乎都和这个男人之死有关,他的生命甚至受到威胁。为了找出自己的真实身份,大卫求助于私家侦探泰德(华特马殊),经过一连串怪异而吓人的经历后,大卫找到一个精神病医生,他帮助大卫回忆过往,但是也使大卫陷入万劫不复的恶梦当中!大卫到底是谁?是谁要致他于死地?动机又是为什麽呢?
Video
ID                                       : 1
Format                                   : AVC
Format/Info                              : Advanced Video Codec
Format settings                          : CABAC / 8 Ref Frames
Format settings, CABAC                   : Yes
Format settings, Reference frames        : 8 frames
Codec ID                                 : V_MPEG4/ISO/AVC
Duration                                 : 1 h 48 min
Bit rate                                 : 8 379 kb/s
Width                                    : 1 280 pixels
Height                                   : 688 pixels
Display aspect ratio                     : 1.85:1
Frame rate mode                          : Constant
Frame rate                               : 23.976 (24000/1001/189150) FPS
Color space                              : YUV
Chroma subsampling                       : 4:2:0
Bit depth                                : 8 bits
Scan type                                : Progressive
Bits/(Pixel*Frame)                       : 0.397
Stream size                              : 6.37 GiB (92%)
Writing library                          : x264 core 161 r3018 db0d417
Encoding settings                        : cabac=1 / ref=8 / deblock=1:-3:-3 / analyse=0x3:0x133 / me=umh / subme=9 / psy=1 / psy_rd=1.00:0.00 / mixed_ref=1 / me_range=16 / chroma_me=1 / trellis=2 / 8x8dct=1 / cqm=0 / deadzone=21,11 / fast_pskip=0 / chroma_qp_offset=-2 / threads=21 / lookahead_threads=1 / sliced_threads=0 / nr=0 / decimate=1 / interlaced=0 / bluray_compat=0 / constrained_intra=0 / bframes=3 / b_pyramid=2 / b_adapt=2 / b_bias=0 / direct=3 / weightb=1 / open_gop=0 / weightp=2 / keyint=250 / keyint_min=23 / scenecut=40 / intra_refresh=0 / rc_lookahead=60 / rc=crf / mbtree=1 / crf=20.2 / qcomp=0.60 / qpmin=0 / qpmax=69 / qpstep=4 / ip_ratio=1.40 / aq=1:1.00
Language                                 : English
Default                                  : Yes
Forced                                   : No

Audio #1
ID                                       : 2
Format                                   : FLAC
Format/Info                              : Free Lossless Audio Codec
Codec ID                                 : A_FLAC
Duration                                 : 1 h 48 min
Bit rate mode                            : Variable
Bit rate                                 : 635 kb/s
Channel(s)                               : 2 channels
Channel layout                           : L R
Sampling rate                            : 48.0 kHz
Frame rate                               : 11.719 FPS (4096 SPF)
Bit depth                                : 24 bits
Compression mode                         : Lossless
Stream size                              : 494 MiB (7%)
Writing library                          : libFLAC 1.3.2 (UTC 2017-01-01)
Language                                 : English
Default                                  : Yes
Forced                                   : No

Audio #2
ID                                       : 3
Format                                   : AAC LC
Format/Info                              : Advanced Audio Codec Low Complexity
Codec ID                                 : A_AAC-2
Duration                                 : 1 h 48 min
Bit rate                                 : 90.1 kb/s
Channel(s)                               : 2 channels
Channel layout                           : L R
Sampling rate                            : 48.0 kHz
Frame rate                               : 46.875 FPS (1024 SPF)
Compression mode                         : Lossy
Delay relative to video                  : 9 ms
Stream size                              : 70.1 MiB (1%)
Title                                    : commentary
Language                                 : English
Default                                  : No
Forced                                   : No

Text #1
ID                                       : 4
Format                                   : UTF-8
Codec ID                                 : S_TEXT/UTF8
Codec ID/Info                            : UTF-8 Plain Text
Duration                                 : 1 h 46 min
Bit rate                                 : 70 b/s
Count of elements                        : 1538
Stream size                              : 54.7 KiB (0%)
Language                                 : English
Default                                  : No
Forced                                   : No

Text #2
ID                                       : 5
Format                                   : PGS
Muxing mode                              : zlib
Codec ID                                 : S_HDMV/PGS
Codec ID/Info                            : Picture based subtitle format used on BDs/HD-DVDs
Duration                                 : 1 h 46 min
Bit rate                                 : 39.2 kb/s
Count of elements                        : 2785
Stream size                              : 29.9 MiB (0%)
Language                                 : English
Default                                  : No
Forced                                   : No

Text #3
ID                                       : 6
Format                                   : PGS
Muxing mode                              : zlib
Codec ID                                 : S_HDMV/PGS
Codec ID/Info                            : Picture based subtitle format used on BDs/HD-DVDs
Duration                                 : 1 h 46 min
Bit rate                                 : 46.8 kb/s
Count of elements                        : 2844
Stream size                              : 35.6 MiB (1%)
Language                                 : German
Default                                  : No
Forced                                   : No

Menu
00:00:00.000                             : :Kapitel 01
00:01:49.693                             : :Kapitel 02
00:10:30.296                             : :Kapitel 03
00:20:33.732                             : :Kapitel 04
00:26:40.390                             : :Kapitel 05
00:29:58.046                             : :Kapitel 06
00:36:14.089                             : :Kapitel 07
00:39:13.685                             : :Kapitel 08
00:43:59.136                             : :Kapitel 09
00:51:39.763                             : :Kapitel 10
00:59:53.298                             : :Kapitel 11
01:10:33.604                             : :Kapitel 12
01:21:06.820                             : :Kapitel 13
01:27:54.519                             : :Kapitel 14
01:31:03.166                             : :Kapitel 15
01:37:53.326                             : :Kapitel 16




                                                                                                                                                                                                        
                                                                                                                                                                                                                                          
77dae217f624a380de9250eea542a150.zip (35.39 KB, 下载次数: 0)

回复

使用道具 举报

小黑屋|百度云资源论坛 |网站地图

本网站所有资源来自网络,如无意中侵犯了您的权益,请发邮件至 [email protected],立即清除相关链接

GMT+8, 2020-10-28 05:28 , Processed in 0.113524 second(s), 23 queries .

Powered by Discuz! X3.2

© 2001-2013 Comsenz Inc.

快速回复 返回顶部 返回列表