百度云资源论坛

 找回密码
 立即注册
搜索

[4K-原盘] 爆裂老兵 VFW.2019.2160p.BluRay.REMUX.HEVC.DTS-HD.MA.5.1-FGT 46.40GB

[复制链接]
百度云电影 发表于 2020-7-15 23:48:28 | 显示全部楼层 |阅读模式
-->



◎译  名 爆裂老兵 / Veterans of Foreign Wars / 海外作战退伍军人 / 美国国外战争退伍军人 / 老兵
◎片  名 V.F.W.
◎年  代 2019
◎产  地 美国
◎类  别 动作 / 恐怖
◎语  言 英语
◎上映日期 2019-09-21(美国)
◎IMDb评分  6.1/10 from 3464 users
◎片  长 92分钟
◎导  演 乔·比格斯 Joe Begos
◎编  剧 马克斯·布莱利尔 Max Brallier / 马修·迈克阿德尔 Matthew McArdle
◎主  演 史蒂芬·朗 Stephen Lang
       威廉姆·赛德勒 William Sadler
       弗雷德·威廉森 Fred Williamson
       马丁·科夫 Martin Kove
       大卫·帕特里克·凯利 David Patrick Kelly
       乔治·温迪特 George Wendt
       汤姆·威廉姆森 Tom Williamson
       谢拉·麦克康米克 Sierra McCormick
       崔维斯·汉默 Travis Hammer
       多拉·马迪森·布鲁格 Dora Madison Burge
       Josh Ethier
       Graham Skipper
       Linnea Wilson
       杰西·科夫 Jesse Kove
       Brandon Potter
       雷利·库西克 Riley Cusick
       Leon Slaughter


◎标  签 血腥 | 动作 | 美国 | 犯罪 | 2019 | cult | 美国电影 | 恐怖

◎简  介   

  史蒂芬·朗将主演动作恐怖新片[V.F.W.]。影片被描述为[日落黄沙]和[活死人之夜]的结合体。故事讲述弗雷德和他的战友们必须保护他们当地的VFW基地。一个无辜的青少年将对抗疯狂的毒贩和无情的朋克变种人军队。这将是这些越战老兵们一生中最漫长的夜晚。本片由乔·毕高斯执导,马克斯·布拉利尔、马修·麦卡德尔撰写剧本,将于本月在达拉斯开机。
Video
ID                                       : 1
ID in the original source medium         : 4113 (0x1011)
Format                                   : HEVC
Format/Info                              : High Efficiency Video Coding
HDR format                               : SMPTE ST 2094 App 4, Version 1, HDR10+ Profile B compatible
Codec ID                                 : V_MPEGH/ISO/HEVC
Duration                                 : 1 h 32 min
Bit rate                                 : 64.1 Mb/s
Width                                    : 3 840 pixels
Height                                   : 2 160 pixels
Display aspect ratio                     : 16:9
Frame rate mode                          : Constant
Frame rate                               : 24.000 FPS
Color space                              : YUV
Chroma subsampling                       : 4:2:0 (Type 2)
Bit depth                                : 10 bits
Bits/(Pixel*Frame)                       : 0.322
Stream size                              : 41.2 GiB (89%)
Title                                    : VFW.2019.2160p.BluRay.REMUX.HEVC.DTS-HD.MA.5.1-FGT
Language                                 : English
Default                                  : No
Forced                                   : No
Color range                              : Limited
Color primaries                          : BT.2020
Transfer characteristics                 : PQ
Matrix coefficients                      : BT.2020 non-constant
Mastering display color primaries        : Display P3
Mastering display luminance              : min: 0.0050 cd/m2, max: 1000 cd/m2
Maximum Content Light Level              : 1000 cd/m2
Maximum Frame-Average Light Level        : 400 cd/m2
Original source medium                   : Blu-ray

Audio #1
ID                                       : 2
ID in the original source medium         : 4353 (0x1101)
Format                                   : DTS XLL
Format/Info                              : Digital Theater Systems
Commercial name                          : DTS-HD Master Audio
Codec ID                                 : A_DTS
Duration                                 : 1 h 32 min
Bit rate mode                            : Variable
Bit rate                                 : 3 983 kb/s
Channel(s)                               : 6 channels
Channel layout                           : C L R Ls Rs LFE
Sampling rate                            : 48.0 kHz
Frame rate                               : 93.750 FPS (512 SPF)
Bit depth                                : 24 bits
Compression mode                         : Lossless
Stream size                              : 2.56 GiB (6%)
Title                                    : VFW.2019.2160p.BluRay.REMUX.HEVC.DTS-HD.MA.5.1-FGT
Language                                 : English
Default                                  : Yes
Forced                                   : No
Original source medium                   : Blu-ray

Audio #2
ID                                       : 3
ID in the original source medium         : 4352 (0x1100)
Format                                   : DTS XLL
Format/Info                              : Digital Theater Systems
Commercial name                          : DTS-HD Master Audio
Codec ID                                 : A_DTS
Duration                                 : 1 h 31 min
Bit rate mode                            : Variable
Bit rate                                 : 4 092 kb/s
Channel(s)                               : 6 channels
Channel layout                           : C L R Ls Rs LFE
Sampling rate                            : 48.0 kHz
Frame rate                               : 93.750 FPS (512 SPF)
Bit depth                                : 24 bits
Compression mode                         : Lossless
Stream size                              : 2.62 GiB (6%)
Title                                    : VFW.2019.2160p.BluRay.REMUX.HEVC.DTS-HD.MA.5.1-FGT
Language                                 : German
Default                                  : No
Forced                                   : No
Original source medium                   : Blu-ray

Text #1
ID                                       : 4
Format                                   : UTF-8
Codec ID                                 : S_TEXT/UTF8
Codec ID/Info                            : UTF-8 Plain Text
Duration                                 : 1 h 25 min
Bit rate                                 : 53 b/s
Count of elements                        : 1213
Stream size                              : 33.9 KiB (0%)
Title                                    : English-SRT
Language                                 : English
Default                                  : Yes
Forced                                   : No

Text #2
ID                                       : 5
ID in the original source medium         : 4768 (0x12A0)
Format                                   : PGS
Muxing mode                              : zlib
Codec ID                                 : S_HDMV/PGS
Codec ID/Info                            : Picture based subtitle format used on BDs/HD-DVDs
Duration                                 : 1 h 30 min
Bit rate                                 : 33.0 kb/s
Count of elements                        : 2208
Stream size                              : 21.5 MiB (0%)
Title                                    : German-PGS
Language                                 : German
Default                                  : No
Forced                                   : No
Original source medium                   : Blu-ray

Text #3
ID                                       : 6
ID in the original source medium         : 4769 (0x12A1)
Format                                   : PGS
Muxing mode                              : zlib
Codec ID                                 : S_HDMV/PGS
Codec ID/Info                            : Picture based subtitle format used on BDs/HD-DVDs
Duration                                 : 1 h 30 min
Bit rate                                 : 710 b/s
Count of elements                        : 42
Stream size                              : 473 KiB (0%)
Title                                    : German-FORCED-PGS
Language                                 : German
Default                                  : No
Forced                                   : No
Original source medium                   : Blu-ray

Menu
00:00:00.000                             : en:Chapter 01
00:12:14.291                             : en:Chapter 02
00:22:13.916                             : en:Chapter 03
00:26:14.125                             : en:Chapter 04
00:32:06.083                             : en:Chapter 05
00:39:53.750                             : en:Chapter 06
00:47:25.000                             : en:Chapter 07
00:52:02.750                             : en:Chapter 08
00:59:42.375                             : en:Chapter 09
01:08:35.500                             : en:Chapter 10
01:13:00.541                             : en:Chapter 11
01:25:47.166                             : en:Chapter 12
01:31:45.166                             : en:Chapter 13




                                                                                                                                                                                                        
                                                                                                                                                                                                                                                                                                                                                                                                                                                                                                                                                                                                                                                                                                                                                                                                                                                       47cabdb5823d1978ce7adedd6cded34a.zip (116.68 KB, 下载次数: 0)

回复

使用道具 举报

小黑屋|百度云资源论坛 |网站地图

本网站所有资源来自网络,如无意中侵犯了您的权益,请发邮件至 [email protected],立即清除相关链接

GMT+8, 2020-8-8 11:52 , Processed in 0.110105 second(s), 23 queries .

Powered by Discuz! X3.2

© 2001-2013 Comsenz Inc.

快速回复 返回顶部 返回列表