百度云资源论坛

 找回密码
 立即注册
搜索

狼 Wolf.2019.720p.BluRay.x264-GUACAMOLE 2.50GB

[复制链接]
百度云电影 发表于 2020-7-15 23:17:03 | 显示全部楼层 |阅读模式
帖子完整标题:狼 Wolf.2019.720p.BluRay.x264-GUACAMOLE 2.50GB




◎译  名 狼
◎片  名 Wolf
◎年  代 2019
◎产  地 英国
◎类  别 恐怖
◎语  言 英语
◎上映日期 2019-09-13(英国/爱尔兰)
◎IMDb评分  5.2/10 from 1491 users
◎片  长 85分钟
◎导  演 Stuart Brennan
◎编  剧 Stuart Brennan / George McCluskey
◎主  演 Stuart Brennan
       Mark Paul Wake
       George McCluskey
       Victoria Morrison
       Adanna Oji
       Jennifer Chippindale
       罗斯·安德森 Ross Anderson
       Nick Sheard
       Sarah Zebrzuski


◎标  签 英国电影 | 恐怖 | 历史/文学/游戏/漫画改编 | [歐美] | 3M稀影基地论坛 | 2019

◎简  介   

  大不列颠。150AD。当四名使者被罗马派往感染了瘟疫的喀里多尼亚,并给他们的国王以和平与帮助的讯息时,失踪了,罗马别无选择,只能将十个最好的信徒送出哈德良长城,以找到并把他们带回。在他们的队长多米蒂乌斯(Domitius)(乔治·麦克卢斯基(George McCluskey),《僵尸王》(The Zombie King))以及两个最强大的战士格拉克(Grackus)(斯图尔特·布伦南(Stuart Brennan,Risen))和内尔瓦(Nerva)(马克·保罗·威克(Mark Paul Wake),《 Z计划》)的带领下,军团很快意识到,等待他们的东西比人类已知的任何瘟疫或军队都要糟糕得多-而且在他们被野兽逐鹿捡拾的过程中,他们被一个人一个接一个地摘下,他们无法匹敌,生存下来这是他们唯一的希望,会有人警告罗马现在可能面临的危险。为罗马而战。为凯撒而战。为生存而战。
Video
ID                                       : 1
Format                                   : AVC
Format/Info                              : Advanced Video Codec
Format settings                          : CABAC / 8 Ref Frames
Format settings, CABAC                   : Yes
Format settings, Reference frames        : 8 frames
Codec ID                                 : V_MPEG4/ISO/AVC
Duration                                 : 1 h 25 min
Bit rate                                 : 3 553 kb/s
Width                                    : 1 280 pixels
Height                                   : 544 pixels
Display aspect ratio                     : 2.35:1
Frame rate mode                          : Constant
Frame rate                               : 25.000 FPS
Color space                              : YUV
Chroma subsampling                       : 4:2:0
Bit depth                                : 8 bits
Scan type                                : Progressive
Bits/(Pixel*Frame)                       : 0.204
Stream size                              : 2.11 GiB (84%)
Writing library                          : x264 core 161 r3015 4c2aafd
Encoding settings                        : cabac=1 / ref=8 / deblock=1:-3:-3 / analyse=0x3:0x133 / me=umh / subme=9 / psy=1 / psy_rd=1.00:0.00 / mixed_ref=1 / me_range=16 / chroma_me=1 / trellis=2 / 8x8dct=1 / cqm=0 / deadzone=21,11 / fast_pskip=0 / chroma_qp_offset=-2 / threads=17 / lookahead_threads=1 / sliced_threads=0 / nr=0 / decimate=1 / interlaced=0 / bluray_compat=0 / constrained_intra=0 / bframes=3 / b_pyramid=2 / b_adapt=2 / b_bias=0 / direct=3 / weightb=1 / open_gop=0 / weightp=2 / keyint=250 / keyint_min=23 / scenecut=40 / intra_refresh=0 / rc_lookahead=60 / rc=crf / mbtree=1 / crf=17.0 / qcomp=0.60 / qpmin=0 / qpmax=69 / qpstep=4 / ip_ratio=1.40 / aq=3:1.00
Default                                  : Yes
Forced                                   : No
Color range                              : Limited
Color primaries                          : BT.709
Transfer characteristics                 : BT.709
Matrix coefficients                      : BT.709

Audio
ID                                       : 2
Format                                   : AC-3
Format/Info                              : Audio Coding 3
Commercial name                          : Dolby Digital
Codec ID                                 : A_AC3
Duration                                 : 1 h 25 min
Bit rate mode                            : Constant
Bit rate                                 : 640 kb/s
Channel(s)                               : 6 channels
Channel layout                           : L R C LFE Ls Rs
Sampling rate                            : 48.0 kHz
Frame rate                               : 31.250 FPS (1536 SPF)
Bit depth                                : 16 bits
Compression mode                         : Lossy
Stream size                              : 389 MiB (15%)
Language                                 : English
Service kind                             : Complete Main
Default                                  : Yes
Forced                                   : No

Text
ID                                       : 3
Format                                   : PGS
Muxing mode                              : zlib
Codec ID                                 : S_HDMV/PGS
Codec ID/Info                            : Picture based subtitle format used on BDs/HD-DVDs
Duration                                 : 1 h 19 min
Bit rate                                 : 30.5 kb/s
Count of elements                        : 1933
Stream size                              : 17.4 MiB (1%)
Language                                 : German
Default                                  : No
Forced                                   : No

Menu
00:00:00.000                             : en:00:00:00.000
00:05:29.840                             : en:00:05:29.840
00:12:32.000                             : en:00:12:32.000
00:18:32.400                             : en:00:18:32.400
00:24:35.160                             : en:00:24:35.160
00:33:09.280                             : en:00:33:09.280
00:38:34.880                             : en:00:38:34.880
00:49:15.640                             : en:00:49:15.640
00:53:34.080                             : en:00:53:34.080
00:58:50.040                             : en:00:58:50.040
01:06:04.520                             : en:01:06:04.520
01:14:21.480                             : en:01:14:21.480




                                                                                                                                                                                                        
                                                                                                                                                                                                                                                                                                                                                                                                                                                                                                                                                                                                                                                                                                                                                                                                                                                       35c305c85ca5f44461c2c379c8e6b6dd.zip (25.64 KB, 下载次数: 0)

回复

使用道具 举报

小黑屋|百度云资源论坛 |网站地图

本网站所有资源来自网络,如无意中侵犯了您的权益,请发邮件至 [email protected],立即清除相关链接

GMT+8, 2020-8-7 06:05 , Processed in 0.149630 second(s), 23 queries .

Powered by Discuz! X3.2

© 2001-2013 Comsenz Inc.

快速回复 返回顶部 返回列表