百度云资源论坛

 找回密码
 立即注册
搜索

新喜剧之王 The.New.King.of.Comedy.2019.CHINESE.1080p.BluRay.x264-WiKi 10...

[复制链接]
百度云资源 发表于 2020-9-4 11:59:14 | 显示全部楼层 |阅读模式
帖子完整标题:新喜剧之王 The.New.King.of.Comedy.2019.CHINESE.1080p.BluRay.x264-WiKi 10.19GB




◎译  名 D计划/King of Comedy 2/The New King of Comedy/喜剧之王2
◎片  名 新喜剧之王
◎年  代 2019
◎产  地 中国大陆,中国香港
◎类  别 剧情 / 喜剧
◎语  言 汉语普通话,粤语
◎上映日期 2019-02-05(中国大陆)
◎IMDb评分  6.2/10 from 1242 users
◎片  长 91分钟
◎导  演 周星驰 Stephen Chow / 邱礼涛 Herman Yau / 肖鹤 He Xiao / 黄骁鹏 Xiaopeng Huang
◎编  剧 周星驰 Stephen Chow / 江玉仪 Ivy Kong / 李思臻 Kelvin Lee / 赵博君 Bojun Zhao
◎主  演 王宝强 Baoqiang Wang
       鄂靖文 Jingwen E
       张全蛋 Quandan Zhang
       景如洋 Ruyang Jing
       张琪 Qi Zhang
       袁兴哲 Xingzhe Yuan
       田启文 Kai Man Tin
       黄骁鹏 Xiaopeng Huang
       蔡哲睿 Zherui Cai
       苗溢伦 Yilun Miao
       Qi Zhang
       大卫·托罗克 David Torok
       郭泱 Yang Guo
       勃小龙 Pierre Bourdaud
       潘玉成 Yucheng Pan
       郭子恒 Ziheng Guo
       庄其迁 Qiqian Zhuang
       张柏芝 Cecilia Cheung
       周云淑 Yunshu Zhou
       邵老五 Laowu Shao
       马汉毅 Hanyi Ma
       王昕岚 Xinlan Wang
       单涛 Tao Shan
       田惺 Xing Tian
       黎荣森 Rongsen Li
       杨喻文 Eve Young
       方志明 Zhiming Fang
       赵芳华 Fanghua Zhao
       龙思雨 Siyu Long
       罗心妍 Xinyan Luo
       黄洲龙 Zhoulong Huang
       伍国宝 Guobao Wu
       梅达池 Dachi Mei
       肖鹤 He Xiao

◎标  签 喜剧 | 人生 | 无厘头 | 感人 | 2019 | 黑色幽默 | 香港 | 温情

◎简  介

  大型影视基地,胸怀明星梦的女子如梦(鄂靖文 饰)已经在影视圈摸爬滚打了十多年,却依旧还是籍籍无名的龙套演员。平日里,在片场饱受剧组和其他演员的欺凌嘲笑,回到家则被恨铁不成钢的老爹指责,甚至扬言断绝父女关系。然而如梦一律微笑面对,天大的委屈也藏在心中,死皮赖脸地抓住每一个希望渺茫的机会。在此期间,她结识了热衷于跑龙套的李洋,早已过气却自视甚高的童星马可(王宝强 饰),更彻彻底底看清了自己以及爱情的真相。
  
  她是过于平凡的小人物,是一个不该有梦的女孩,是一个直到宇宙灭亡也永远不会得到演戏机会的可悲龙套……

◎获奖情况

  第39届香港电影金像奖 ?(2020)
  最佳电影(提名)
  最佳男配角(提名) 张琪
  最佳新演员(提名) 鄂靖文
  
  第19届华语电影传媒大奖 ?(2019)
  最佳新演员 鄂靖文
  
  第5届豆瓣电影年度榜单 ?(2018)
  最值得期待的华语电影(提名)
Video
ID                                       : 1
Format                                   : AVC
Format/Info                              : Advanced Video Codec
Format settings                          : CABAC / 5 Ref Frames
Format settings, CABAC                   : Yes
Format settings, Reference frames        : 5 frames
Codec ID                                 : V_MPEG4/ISO/AVC
Duration                                 : 1 h 30 min
Bit rate                                 : 15.6 Mb/s
Width                                    : 1 920 pixels
Height                                   : 804 pixels
Display aspect ratio                     : 2.40:1
Frame rate mode                          : Constant
Frame rate                               : 24.000 FPS
Color space                              : YUV
Chroma subsampling                       : 4:2:0
Bit depth                                : 8 bits
Scan type                                : Progressive
Bits/(Pixel*Frame)                       : 0.420
Stream size                              : 9.79 GiB (96%)
Writing library                          : x264 core 157 r2969 d4099dd
Encoding settings                        : cabac=1 / ref=5 / deblock=1:-3:-3 / analyse=0x3:0x133 / me=umh / subme=10 / psy=1 / psy_rd=1.00:0.00 / mixed_ref=1 / me_range=32 / chroma_me=1 / trellis=2 / 8x8dct=1 / cqm=0 / deadzone=21,11 / fast_pskip=0 / chroma_qp_offset=-2 / threads=24 / lookahead_threads=4 / sliced_threads=0 / nr=0 / decimate=0 / interlaced=0 / bluray_compat=0 / constrained_intra=0 / bframes=7 / b_pyramid=2 / b_adapt=2 / b_bias=0 / direct=3 / weightb=1 / open_gop=0 / weightp=2 / keyint=250 / keyint_min=24 / scenecut=40 / intra_refresh=0 / rc_lookahead=60 / rc=crf / mbtree=0 / crf=15.9 / qcomp=0.65 / qpmin=0 / qpmax=69 / qpstep=4 / vbv_maxrate=62500 / vbv_bufsize=78125 / crf_max=0.0 / nal_hrd=none / filler=0 / ip_ratio=1.30 / pb_ratio=1.20 / aq=3:0.80 / zones=123757,129694,b=0.5
Language                                 : English
Default                                  : Yes
Forced                                   : No

Audio
ID                                       : 2
Format                                   : AC-3
Format/Info                              : Audio Coding 3
Commercial name                          : Dolby Digital
Codec ID                                 : A_AC3
Duration                                 : 1 h 30 min
Bit rate mode                            : Constant
Bit rate                                 : 640 kb/s
Channel(s)                               : 6 channels
Channel layout                           : L R C LFE Ls Rs
Sampling rate                            : 48.0 kHz
Frame rate                               : 31.250 FPS (1536 SPF)
Compression mode                         : Lossy
Stream size                              : 412 MiB (4%)
Title                                    : Mandarin
Language                                 : Chinese
Service kind                             : Complete Main
Default                                  : Yes
Forced                                   : No

Text #1
ID                                       : 3
Format                                   : UTF-8
Codec ID                                 : S_TEXT/UTF8
Codec ID/Info                            : UTF-8 Plain Text
Duration                                 : 1 h 23 min
Bit rate                                 : 64 b/s
Count of elements                        : 1639
Stream size                              : 39.8 KiB (0%)
Language                                 : English
Default                                  : Yes
Forced                                   : Yes

Text #2
ID                                       : 4
Format                                   : UTF-8
Codec ID                                 : S_TEXT/UTF8
Codec ID/Info                            : UTF-8 Plain Text
Duration                                 : 1 h 23 min
Bit rate                                 : 55 b/s
Count of elements                        : 1633
Stream size                              : 34.2 KiB (0%)
Title                                    : CHS
Language                                 : Chinese
Default                                  : No
Forced                                   : No

Text #3
ID                                       : 5
Format                                   : UTF-8
Codec ID                                 : S_TEXT/UTF8
Codec ID/Info                            : UTF-8 Plain Text
Duration                                 : 1 h 23 min
Bit rate                                 : 55 b/s
Count of elements                        : 1633
Stream size                              : 34.2 KiB (0%)
Title                                    : CHT
Language                                 : Chinese
Default                                  : No
Forced                                   : No

Menu
00:00:00.000                             : en:00:00:00.000
00:07:22.958                             : en:00:07:22.958
00:14:43.083                             : en:00:14:43.083
00:21:47.667                             : en:00:21:47.667
00:30:42.542                             : en:00:30:42.542
00:35:27.542                             : en:00:35:27.542
00:44:49.958                             : en:00:44:49.958
00:52:45.500                             : en:00:52:45.500
00:58:07.375                             : en:00:58:07.375
01:07:20.917                             : en:01:07:20.917
01:14:25.542                             : en:01:14:25.542
01:23:06.500                             : en:01:23:06.500




                                                                                                                                                                                                        
                                                                                                                                                                                                                                                                                                                                                                                                                                                                                                                                                                                                                                                                                                                              
0815f3abf350fb2ef93bfa7a652be8ed.zip (52.42 KB, 下载次数: 0)

回复

使用道具 举报

小黑屋|百度云资源论坛 |网站地图

本网站所有资源来自网络,如无意中侵犯了您的权益,请发邮件至 [email protected],立即清除相关链接

GMT+8, 2021-1-25 22:44 , Processed in 0.097047 second(s), 23 queries .

Powered by Discuz! X3.2

© 2001-2013 Comsenz Inc.

快速回复 返回顶部 返回列表