百度云资源论坛

 找回密码
 立即注册
搜索

亡命30英里/30英里外 30.Miles.From.Nowhere.2018.720p.BluRay.x264-PussyF...

[复制链接]
百度云电影 发表于 2020-9-3 11:33:28 | 显示全部楼层 |阅读模式
帖子完整标题:亡命30英里/30英里外 30.Miles.From.Nowhere.2018.720p.BluRay.x264-PussyFoot 1.52GB




◎译  名 亡命30英里/30英里外/惊魂30英里
◎片  名 30 Miles from Nowhere
◎年  代 2018
◎产  地 美国
◎类  别 惊悚
◎语  言 英语
◎上映日期 2018-11-24(澳大利亚 (Monster Fest))
◎片  长 83分钟
◎编  剧 希娜·柯福德 Seana Kofoed
◎主  演 卡丽·普雷斯顿 Carrie Preston
       罗伯·本内迪克特 Rob Benedict
       安德鲁·罗森博格 Andrew Rothenberg

◎标  签 恐怖 | 惊悚 | 美国 | 澳洲 | 剧情 | 美国电影 | 澳大利亚 | EFM2019

◎简  介

  When five college pals return to rural Wisconsin for their estranged friend's funeral, what begins as an uneasy reunion becomes a terrifying fight for survival.
Video
ID                                       : 1
Format                                   : AVC
Format/Info                              : Advanced Video Codec
Format settings                          : CABAC / 8 Ref Frames
Format settings, CABAC                   : Yes
Format settings, Reference frames        : 8 frames
Codec ID                                 : V_MPEG4/ISO/AVC
Duration                                 : 1 h 24 min
Bit rate                                 : 1 925 kb/s
Width                                    : 1 280 pixels
Height                                   : 536 pixels
Display aspect ratio                     : 2.40:1
Frame rate mode                          : Constant
Frame rate                               : 23.976 (24000/1001/189150) FPS
Color space                              : YUV
Chroma subsampling                       : 4:2:0
Bit depth                                : 8 bits
Scan type                                : Progressive
Bits/(Pixel*Frame)                       : 0.117
Stream size                              : 1.13 GiB (75%)
Writing library                          : x264 core 161 r3018 db0d417
Encoding settings                        : cabac=1 / ref=8 / deblock=1:-3:-3 / analyse=0x3:0x133 / me=umh / subme=9 / psy=1 / psy_rd=1.00:0.00 / mixed_ref=1 / me_range=16 / chroma_me=1 / trellis=2 / 8x8dct=1 / cqm=0 / deadzone=21,11 / fast_pskip=0 / chroma_qp_offset=-2 / threads=17 / lookahead_threads=1 / sliced_threads=0 / nr=0 / decimate=1 / interlaced=0 / bluray_compat=0 / constrained_intra=0 / bframes=3 / b_pyramid=2 / b_adapt=2 / b_bias=0 / direct=3 / weightb=1 / open_gop=0 / weightp=2 / keyint=250 / keyint_min=23 / scenecut=40 / intra_refresh=0 / rc_lookahead=60 / rc=crf / mbtree=1 / crf=17.0 / qcomp=0.60 / qpmin=0 / qpmax=69 / qpstep=4 / ip_ratio=1.40 / aq=1:1.00
Language                                 : English
Default                                  : Yes
Forced                                   : No

Audio
ID                                       : 2
Format                                   : AC-3
Format/Info                              : Audio Coding 3
Commercial name                          : Dolby Digital
Codec ID                                 : A_AC3
Duration                                 : 1 h 24 min
Bit rate mode                            : Constant
Bit rate                                 : 640 kb/s
Channel(s)                               : 6 channels
Channel layout                           : L R C LFE Ls Rs
Sampling rate                            : 48.0 kHz
Frame rate                               : 31.250 FPS (1536 SPF)
Compression mode                         : Lossy
Stream size                              : 386 MiB (25%)
Language                                 : English
Service kind                             : Complete Main
Default                                  : Yes
Forced                                   : No

Text
ID                                       : 3
Format                                   : PGS
Muxing mode                              : zlib
Codec ID                                 : S_HDMV/PGS
Codec ID/Info                            : Picture based subtitle format used on BDs/HD-DVDs
Duration                                 : 1 h 16 min
Bit rate                                 : 36.9 kb/s
Count of elements                        : 1801
Stream size                              : 20.2 MiB (1%)
Language                                 : German
Default                                  : No
Forced                                   : No

Menu
00:00:00.000                             : :Kapitel 01
00:03:00.180                             : :Kapitel 02
00:09:16.306                             : :Kapitel 03
00:16:54.347                             : :Kapitel 04
00:28:18.572                             : :Kapitel 05
00:35:28.251                             : :Kapitel 06
00:41:50.007                             : :Kapitel 07
00:48:37.414                             : :Kapitel 08
00:54:53.749                             : :Kapitel 09
01:01:29.936                             : :Kapitel 10
01:11:52.767                             : :Kapitel 11
01:19:54.999                             : :Kapitel 12




                                                                                                                                                                                                        
                                                                                                                                                                                                                                          
a6aafdf3a359e21c5e29960105f47bf1.zip (16.7 KB, 下载次数: 0)

回复

使用道具 举报

小黑屋|百度云资源论坛 |网站地图

本网站所有资源来自网络,如无意中侵犯了您的权益,请发邮件至 [email protected],立即清除相关链接

GMT+8, 2020-10-2 07:12 , Processed in 0.103727 second(s), 23 queries .

Powered by Discuz! X3.2

© 2001-2013 Comsenz Inc.

快速回复 返回顶部 返回列表