百度云资源论坛

 找回密码
 立即注册
搜索

[4K-原盘] 大侦探福尔摩斯/神探福尔摩斯 Sherlock.Holmes.2009.2160p.BluRay.RE...

[复制链接]
百度云电影 发表于 2020-9-1 20:39:48 | 显示全部楼层 |阅读模式
帖子完整标题:大侦探福尔摩斯/神探福尔摩斯 Sherlock.Holmes.2009.2160p.BluRay.REMUX.HEVC.DTS-HD.MA.5.1-FGT 55.55GB




◎译  名 大侦探福尔摩斯/神探福尔摩斯(港)/福尔摩斯(台)/福尔摩斯和华生
◎片  名 Sherlock Holmes
◎年  代 2009
◎产  地 美国,德国
◎类  别 动作 / 悬疑 / 犯罪
◎语  言 英语,法语
◎上映日期 2009-12-25(美国) / 2010-02-25(中国大陆)
◎IMDb评分  7.6/10 from 573895 users
◎片  长 128分钟
◎导  演 盖·里奇 Guy Ritchie
◎编  剧 迈克尔·罗伯特·约翰逊 Michael Robert Johnson / 安东尼·佩卡姆 Anthony Peckham / 西蒙·金伯格 Simon Kinberg / 莱昂内尔·威格拉姆 Lionel Wigram
◎主  演 小罗伯特·唐尼 Robert Downey Jr.
       裘德·洛 Jude Law
       瑞秋·麦克亚当斯 Rachel McAdams
       马克·斯特朗 Mark Strong
       凯利·蕾莉 Kelly Reilly
       威廉·霍普 William Hope
       克里夫·罗素 Clive Russell
       James A. Stephens
       杰佛逊·豪尔 Jefferson Hall
       詹姆斯·福克斯 James Fox
       威廉·休斯顿 William Houston
       彼得·迈尔斯 Peter Miles
       埃迪·马森 Eddie Marsan
       布罗娜·加拉赫 Bronagh Gallagher
       汉斯·麦瑟逊 Hans Matheson
       罗伯特·梅耶 Robert Maillet
       杰拉丁妮·詹姆斯 Geraldine James

◎标  签 推理 | 悬疑 | 美国 | 动作 | 犯罪 | 黑色幽默 | 2009 | 喜剧

◎简  介

  大侦探福尔摩斯(小罗伯特·唐尼 Robert Downer Jr. 饰)即使在置人于死地之时也异常的逻辑清晰,然而办案时有条不紊的他在私底下的生活中简直就是个“怪胎”,至少在他的助手华生医生(裘德·洛 Jude Law饰)眼中他是这样一个人。他们亲手绳之以法的“黑暗巫师”布莱克大人(马克·斯特朗 Mark Strong 饰)在临死前说死亡即是开始,随后艾琳·艾德勒(瑞秋·麦克亚当斯 Rachel McAdams 饰)出现在他的身边要他帮忙找个失踪的人,而她身边有个影子般可怕人物。坊间传说黑暗巫师已经复活,他的墓地遭到破坏,而躺在棺材里的人另有其人。又到了大侦探福尔摩斯出马的时候了,然而调查过程从一开始就险象环生,助手华生医生在调查中更是险些丧命,福尔摩斯也陷入连串的迷团之中。
  
  本片根据著名同名漫画改编,作者莱昂纳尔·威格拉姆(Lionel Wigram)。2010年第82届奥斯卡最佳艺术指导、最佳配乐2项提名、第67届金球奖音乐/喜剧类最佳男主角Robert Downey Jr.

◎获奖情况

  第82届奥斯卡金像奖 ?(2010)
  最佳艺术指导(提名) 莎拉·格林伍德?/?凯蒂·斯宾塞
  最佳原创配乐(提名) 汉斯·季默
  
  第67届金球奖 ?(2010)
  电影类音乐/喜剧片最佳男主角 小罗伯特·唐尼
  
  第19届MTV电影奖 ?(2010)
  MTV电影奖最佳打斗(提名) 小罗伯特·唐尼?/?马克·斯特朗
  
  第12届美国青少年选择奖 ?(2010)
  最佳动作冒险电影
  最佳动作冒险电影男演员(提名) 小罗伯特·唐尼
  最佳动作冒险电影女演员 瑞秋·麦克亚当斯
[quote]Video
ID                                       : 1
ID in the original source medium         : 4113 (0x1011)
Format                                   : HEVC
Format/Info                              : High Efficiency Video Coding
HDR format                               : SMPTE ST 2086, HDR10 compatible
Codec ID                                 : V_MPEGH/ISO/HEVC
Duration                                 : 2 h 8 min
Bit rate                                 : 54.9 Mb/s
Width                                    : 3 840 pixels
Height                                   : 2 160 pixels
Display aspect ratio                     : 16:9
Frame rate mode                          : Constant
Frame rate                               : 23.976 (24000/1001/189150) FPS
Color space                              : YUV
Chroma subsampling                       : 4:2:0 (Type 2)
Bit depth                                : 10 bits
Bits/(Pixel*Frame)                       : 0.276
Stream size                              : 49.3 GiB (89%)
Title                                    : Sherlock.Holmes.2009.2160p.BluRay.REMUX.HEVC.DTS-HD.MA.5.1-FGT
Writing library                          : ATEME Titan File 3.9.0 (4.9.0.0)        
Language                                 : English
Default                                  : No
Forced                                   : No
Color range                              : Limited
Color primaries                          : BT.2020
Transfer characteristics                 : PQ
Matrix coefficients                      : BT.2020 non-constant
Mastering display color primaries        : Display P3
Mastering display luminance              : min: 0.0050 cd/m2, max: 4000 cd/m2
Maximum Content Light Level              : 343 cd/m2
Maximum Frame-Average Light Level        : 106 cd/m2
Original source medium                   : Blu-ray

Audio #1
ID                                       : 2
ID in the original source medium         : 4352 (0x1100)
Format                                   : DTS XLL
Format/Info                              : Digital Theater Systems
Commercial name                          : DTS-HD Master Audio
Codec ID                                 : A_DTS
Duration                                 : 2 h 8 min
Bit rate mode                            : Variable
Bit rate                                 : 2 272 kb/s
Channel(s)                               : 6 channels
Channel layout                           : C L R Ls Rs LFE
Sampling rate                            : 48.0 kHz
Frame rate                               : 93.750 FPS (512 SPF)
Bit depth                                : 16 bits
Compression mode                         : Lossless
Stream size                              : 2.04 GiB (4%)
Title                                    : Sherlock.Holmes.2009.2160p.BluRay.REMUX.HEVC.DTS-HD.MA.5.1-FGT
Language                                 : English
Default                                  : Yes
Forced                                   : No
Original source medium                   : Blu-ray

Audio #2
ID                                       : 3
ID in the original source medium         : 4353 (0x1101)
Format                                   : AC-3
Format/Info                              : Audio Coding 3
Commercial name                          : Dolby Digital
Codec ID                                 : A_AC3
Duration                                 : 2 h 8 min
Bit rate mode                            : Constant
Bit rate                                 : 448 kb/s
Channel(s)                               : 6 channels
Channel layout                           : L R C LFE Ls Rs
Sampling rate                            : 48.0 kHz
Frame rate                               : 31.250 FPS (1536 SPF)
Compression mode                         : Lossy
Delay relative to video                  : 4 s 671 ms
Stream size                              : 411 MiB (1%)
Title                                    : Sherlock.Holmes.2009.2160p.BluRay.REMUX.HEVC.DTS-HD.MA.5.1-FGT
Language                                 : English
Service kind                             : Complete Main
Default                                  : No
Forced                                   : No
Original source medium                   : Blu-ray

Audio #3
ID                                       : 4
ID in the original source medium         : 4354 (0x1102)
Format                                   : AC-3
Format/Info                              : Audio Coding 3
Commercial name                          : Dolby Digital
Codec ID                                 : A_AC3
Duration                                 : 2 h 8 min
Bit rate mode                            : Constant
Bit rate                                 : 448 kb/s
Channel(s)                               : 6 channels
Channel layout                           : L R C LFE Ls Rs
Sampling rate                            : 48.0 kHz
Frame rate                               : 31.250 FPS (1536 SPF)
Compression mode                         : Lossy
Delay relative to video                  : 4 s 671 ms
Stream size                              : 411 MiB (1%)
Title                                    : Sherlock.Holmes.2009.2160p.BluRay.REMUX.HEVC.DTS-HD.MA.5.1-FGT
Language                                 : French
Service kind                             : Complete Main
Default                                  : No
Forced                                   : No
Original source medium                   : Blu-ray

Audio #4
ID                                       : 5
ID in the original source medium         : 4355 (0x1103)
Format                                   : AC-3
Format/Info                              : Audio Coding 3
Commercial name                          : Dolby Digital
Codec ID                                 : A_AC3
Duration                                 : 2 h 8 min
Bit rate mode                            : Constant
Bit rate                                 : 448 kb/s
Channel(s)                               : 6 channels
Channel layout                           : L R C LFE Ls Rs
Sampling rate                            : 48.0 kHz
Frame rate                               : 31.250 FPS (1536 SPF)
Compression mode                         : Lossy
Delay relative to video                  : 4 s 671 ms
Stream size                              : 411 MiB (1%)
Title                                    : Sherlock.Holmes.2009.2160p.BluRay.REMUX.HEVC.DTS-HD.MA.5.1-FGT
Language                                 : French
Service kind                             : Complete Main
Default                                  : No
Forced                                   : No
Original source medium                   : Blu-ray

Audio #5
ID                                       : 6
ID in the original source medium         : 4356 (0x1104)
Format                                   : AC-3
Format/Info                              : Audio Coding 3
Commercial name                          : Dolby Digital
Codec ID                                 : A_AC3
Duration                                 : 2 h 8 min
Bit rate mode                            : Constant
Bit rate                                 : 448 kb/s
Channel(s)                               : 6 channels
Channel layout                           : L R C LFE Ls Rs
Sampling rate                            : 48.0 kHz
Frame rate                               : 31.250 FPS (1536 SPF)
Compression mode                         : Lossy
Delay relative to video                  : 4 s 671 ms
Stream size                              : 411 MiB (1%)
Title                                    : Sherlock.Holmes.2009.2160p.BluRay.REMUX.HEVC.DTS-HD.MA.5.1-FGT
Language                                 : German
Service kind                             : Complete Main
Default                                  : No
Forced                                   : No
Original source medium                   : Blu-ray

Audio #6
ID                                       : 7
ID in the original source medium         : 4357 (0x1105)
Format                                   : AC-3
Format/Info                              : Audio Coding 3
Commercial name                          : Dolby Digital
Codec ID                                 : A_AC3
Duration                                 : 2 h 8 min
Bit rate mode                            : Constant
Bit rate                                 : 448 kb/s
Channel(s)                               : 6 channels
Channel layout                           : L R C LFE Ls Rs
Sampling rate                            : 48.0 kHz
Frame rate                               : 31.250 FPS (1536 SPF)
Compression mode                         : Lossy
Delay relative to video                  : 4 s 671 ms
Stream size                              : 411 MiB (1%)
Title                                    : Sherlock.Holmes.2009.2160p.BluRay.REMUX.HEVC.DTS-HD.MA.5.1-FGT
Language                                 : Spanish
Service kind                             : Complete Main
Default                                  : No
Forced                                   : No
Original source medium                   : Blu-ray

Audio #7
ID                                       : 8
ID in the original source medium         : 4358 (0x1106)
Format                                   : AC-3
Format/Info                              : Audio Coding 3
Commercial name                          : Dolby Digital
Codec ID                                 : A_AC3
Duration                                 : 2 h 8 min
Bit rate mode                            : Constant
Bit rate                                 : 448 kb/s
Channel(s)                               : 6 channels
Channel layout                           : L R C LFE Ls Rs
Sampling rate                            : 48.0 kHz
Frame rate                               : 31.250 FPS (1536 SPF)
Compression mode                         : Lossy
Delay relative to video                  : 4 s 671 ms
Stream size                              : 411 MiB (1%)
Title                                    : Sherlock.Holmes.2009.2160p.BluRay.REMUX.HEVC.DTS-HD.MA.5.1-FGT
Language                                 : Spanish
Service kind                             : Complete Main
Default                                  : No
Forced                                   : No
Original source medium                   : Blu-ray

Audio #8
ID                                       : 9
ID in the original source medium         : 4359 (0x1107)
Format                                   : AC-3
Format/Info                              : Audio Coding 3
Commercial name                          : Dolby Digital
Codec ID                                 : A_AC3
Duration                                 : 2 h 8 min
Bit rate mode                            : Constant
Bit rate                                 : 448 kb/s
Channel(s)                               : 6 channels
Channel layout                           : L R C LFE Ls Rs
Sampling rate                            : 48.0 kHz
Frame rate                               : 31.250 FPS (1536 SPF)
Compression mode                         : Lossy
Delay relative to video                  : 4 s 671 ms
Stream size                              : 411 MiB (1%)
Title                                    : Sherlock.Holmes.2009.2160p.BluRay.REMUX.HEVC.DTS-HD.MA.5.1-FGT
Language                                 : Czech
Service kind                             : Complete Main
Default                                  : No
Forced                                   : No
Original source medium                   : Blu-ray

Audio #9
ID                                       : 10
ID in the original source medium         : 4360 (0x1108)
Format                                   : AC-3
Format/Info                              : Audio Coding 3
Commercial name                          : Dolby Digital
Codec ID                                 : A_AC3
Duration                                 : 2 h 8 min
Bit rate mode                            : Constant
Bit rate                                 : 448 kb/s
Channel(s)                               : 6 channels
Channel layout                           : L R C LFE Ls Rs
Sampling rate                            : 48.0 kHz
Frame rate                               : 31.250 FPS (1536 SPF)
Compression mode                         : Lossy
Delay relative to video                  : 4 s 671 ms
Stream size                              : 411 MiB (1%)
Title                                    : Sherlock.Holmes.2009.2160p.BluRay.REMUX.HEVC.DTS-HD.MA.5.1-FGT
Language                                 : Hungarian
Service kind                             : Complete Main
Default                                  : No
Forced                                   : No
Original source medium                   : Blu-ray

Audio #10
ID                                       : 11
ID in the original source medium         : 4361 (0x1109)
Format                                   : AC-3
Format/Info                              : Audio Coding 3
Commercial name                          : Dolby Digital
Codec ID                                 : A_AC3
Duration                                 : 2 h 8 min
Bit rate mode                            : Constant
Bit rate                                 : 448 kb/s
Channel(s)                               : 6 channels
Channel layout                           : L R C LFE Ls Rs
Sampling rate                            : 48.0 kHz
Frame rate                               : 31.250 FPS (1536 SPF)
Compression mode                         : Lossy
Delay relative to video                  : 4 s 671 ms
Stream size                              : 411 MiB (1%)
Title                                    : Sherlock.Holmes.2009.2160p.BluRay.REMUX.HEVC.DTS-HD.MA.5.1-FGT
Language                                 : Polish
Service kind                             : Complete Main
Default                                  : No
Forced                                   : No
Original source medium                   : Blu-ray

Audio #11
ID                                       : 12
ID in the original source medium         : 4362 (0x110A)
Format                                   : AC-3
Format/Info                              : Audio Coding 3
Commercial name                          : Dolby Digital
Codec ID                                 : A_AC3
Duration                                 : 2 h 8 min
Bit rate mode                            : Constant
Bit rate                                 : 448 kb/s
Channel(s)                               : 6 channels
Channel layout                           : L R C LFE Ls Rs
Sampling rate                            : 48.0 kHz
Frame rate                               : 31.250 FPS (1536 SPF)
Compression mode                         : Lossy
Delay relative to video                  : 4 s 671 ms
Stream size                              : 411 MiB (1%)
Title                                    : Sherlock.Holmes.2009.2160p.BluRay.REMUX.HEVC.DTS-HD.MA.5.1-FGT
Language                                 : Thai
Service kind                             : Complete Main
Default                                  : No
Forced                                   : No
Original source medium                   : Blu-ray

Text #1
ID                                       : 13
Format                                   : UTF-8
Codec ID                                 : S_TEXT/UTF8
Codec ID/Info                            : UTF-8 Plain Text
Duration                                 : 1 h 58 min
Bit rate                                 : 57 b/s
Count of elements                        : 1499
Stream size                              : 50.1 KiB (0%)
Title                                    : English-SRT
Language                                 : English
Default                                  : Yes
Forced                                   : No

Text #2
ID                                       : 14
ID in the original source medium         : 4769 (0x12A1)
Format                                   : PGS
Muxing mode                              : zlib
Codec ID                                 : S_HDMV/PGS
Codec ID/Info                            : Picture based subtitle format used on BDs/HD-DVDs
Duration                                 : 2 h 0 min
Bit rate                                 : 32.8 kb/s
Count of elements                        : 3016
Stream size                              : 28.2 MiB (0%)
Title                                    : English-PGS
Language                                 : English
Default                                  : No
Forced                                   : No
Original source medium                   : Blu-ray

Text #3
ID                                       : 15
ID in the original source medium         : 4771 (0x12A3)
Format                                   : PGS
Muxing mode                              : zlib
Codec ID                                 : S_HDMV/PGS
Codec ID/Info                            : Picture based subtitle format used on BDs/HD-DVDs
Duration                                 : 2 h 6 min
Bit rate                                 : 23.5 kb/s
Count of elements                        : 2980
Stream size                              : 21.3 MiB (0%)
Title                                    : French-PGS
Language                                 : French
Default                                  : No
Forced                                   : No
Original source medium                   : Blu-ray

Text #4
ID                                       : 16
ID in the original source medium         : 4772 (0x12A4)
Format                                   : PGS
Muxing mode                              : zlib
Codec ID                                 : S_HDMV/PGS
Codec ID/Info                            : Picture based subtitle format used on BDs/HD-DVDs
Duration                                 : 2 h 0 min
Bit rate                                 : 39.1 kb/s
Count of elements                        : 3124
Stream size                              : 33.6 MiB (0%)
Title                                    : German-PGS
Language                                 : German
Default                                  : No
Forced                                   : No
Original source medium                   : Blu-ray

Text #5
ID                                       : 17
ID in the original source medium         : 4773 (0x12A5)
Format                                   : PGS
Muxing mode                              : zlib
Codec ID                                 : S_HDMV/PGS
Codec ID/Info                            : Picture based subtitle format used on BDs/HD-DVDs
Duration                                 : 1 h 59 min
Bit rate                                 : 30.1 kb/s
Count of elements                        : 2844
Stream size                              : 25.7 MiB (0%)
Title                                    : Spanish-PGS
Language                                 : Spanish
Default                                  : No
Forced                                   : No
Original source medium                   : Blu-ray

Text #6
ID                                       : 18
ID in the original source medium         : 4774 (0x12A6)
Format                                   : PGS
Muxing mode                              : zlib
Codec ID                                 : S_HDMV/PGS
Codec ID/Info                            : Picture based subtitle format used on BDs/HD-DVDs
Duration                                 : 1 h 59 min
Bit rate                                 : 25.5 kb/s
Count of elements                        : 2232
Stream size                              : 21.8 MiB (0%)
Title                                    : Dutch-PGS
Language                                 : Dutch
Default                                  : No
Forced                                   : No
Original source medium                   : Blu-ray

Text #7
ID                                       : 19
ID in the original source medium         : 4775 (0x12A7)
Format                                   : PGS
Muxing mode                              : zlib
Codec ID                                 : S_HDMV/PGS
Codec ID/Info                            : Picture based subtitle format used on BDs/HD-DVDs
Duration                                 : 2 h 6 min
Bit rate                                 : 25.0 kb/s
Count of elements                        : 2892
Stream size                              : 22.6 MiB (0%)
Title                                    : Chinese-PGS
Language                                 : Chinese
Default                                  : No
Forced                                   : No
Original source medium                   : Blu-ray

Text #8
ID                                       : 20
ID in the original source medium         : 4776 (0x12A8)
Format                                   : PGS
Muxing mode                              : zlib
Codec ID                                 : S_HDMV/PGS

回复

使用道具 举报

小黑屋|百度云资源论坛 |网站地图

本网站所有资源来自网络,如无意中侵犯了您的权益,请发邮件至 [email protected],立即清除相关链接

GMT+8, 2020-9-26 20:16 , Processed in 0.114996 second(s), 20 queries .

Powered by Discuz! X3.2

© 2001-2013 Comsenz Inc.

快速回复 返回顶部 返回列表