百度云资源论坛

 找回密码
 立即注册
搜索

龍少爺 Dragon.Lord.1982.720p.BluRay.x264-USURY 5.68GB

[复制链接]
百度云资源 发表于 2020-8-25 09:42:47 | 显示全部楼层 |阅读模式
帖子完整标题:龍少爺 Dragon.Lord.1982.720p.BluRay.x264-USURY 5.68GB




◎译  名 龙少爷/Dragon Lord
◎片  名 龍少爺
◎年  代 1982
◎产  地 中国香港
◎类  别 喜剧 / 动作 / 运动
◎语  言 粤语
◎上映日期 1982-01-21
◎IMDb评分  6.5/10 from 3296 users
◎片  长 102分钟
◎导  演 成龙 Jackie Chan
◎编  剧 黄炳耀 Barry Wong / 成龙 Jackie Chan / 邓景生 Edward Tang
◎主  演 成龙 Jackie Chan
       陈惠敏 Wai-Man Chan
       郑康业 Kang-Yeh Cheng
       火星 Mars
       何刚 Kang Ho
       吴浣仪 Yuen Yee Ng
       张冲 Paul Chang Chung
       黎强权 Benny Lai Keung-Kuen
       太保 Po Tai
       元奎 Corey Yuen
       孟海 Hoi Mang
       冯克安 Hark-On Fung
       雪梨 Lei Suet
       吴家骧 Chia-hsiang Wu
       田丰 Feng Tien

◎标  签 成龙 | 动作 | 香港 | 喜剧 | 香港电影 | 1982 | 龙少爷 | 电影

◎简  介

  清朝末年,洋人入侵,大厦将倾。大内太监总管程公公(陈惠敏 饰)趁宫中混乱之际,将一件件国宝偷卖给洋人。这天,龙山镇的富家公子、武艺高强的龙少爷(成龙 饰)与朋友外出游玩之际,无意中来到了一处堆满宝藏的地方。看守的人发现了惊奇不已的龙少爷,一路追杀过来。幸好当地王员外暗中相 救,龙少爷才躲过一劫。原来此处是程公公的私藏国宝之地,机关重重。
  
  同时,一直反对程公公所作所为的副总管于海趁乱偷出了一些国宝,程公公得知后大怒,派人追杀于海。龙少爷拔刀相助,反而给王员外也惹来了杀身之祸。怒不可遏的龙少爷决定挑战程公公这个老奸巨猾的卖国贼。

◎获奖情况

  第2届香港电影金像奖 ?(1983)
  最佳动作设计(提名) 成龙?/?YuenKuni
Video
ID                                       : 1
Format                                   : AVC
Format/Info                              : Advanced Video Codec
Format settings                          : CABAC / 12 Ref Frames
Format settings, CABAC                   : Yes
Format settings, Reference frames        : 12 frames
Codec ID                                 : V_MPEG4/ISO/AVC
Duration                                 : 1 h 36 min
Bit rate                                 : 6 740 kb/s
Width                                    : 1 280 pixels
Height                                   : 536 pixels
Display aspect ratio                     : 2.40:1
Frame rate mode                          : Constant
Frame rate                               : 23.976 (24000/1001/189150) FPS
Color space                              : YUV
Chroma subsampling                       : 4:2:0
Bit depth                                : 8 bits
Scan type                                : Progressive
Bits/(Pixel*Frame)                       : 0.410
Stream size                              : 4.52 GiB (80%)
Writing library                          : x264 core 161 r3018 db0d417
Encoding settings                        : cabac=1 / ref=12 / deblock=1:-3:-3 / analyse=0x3:0x133 / me=umh / subme=10 / psy=1 / psy_rd=1.00:0.15 / mixed_ref=1 / me_range=24 / chroma_me=1 / trellis=2 / 8x8dct=1 / cqm=0 / deadzone=21,11 / fast_pskip=1 / chroma_qp_offset=-3 / threads=17 / lookahead_threads=2 / sliced_threads=0 / nr=0 / decimate=1 / interlaced=0 / bluray_compat=0 / constrained_intra=0 / bframes=8 / b_pyramid=2 / b_adapt=2 / b_bias=0 / direct=3 / weightb=1 / open_gop=0 / weightp=2 / keyint=250 / keyint_min=23 / scenecut=40 / intra_refresh=0 / rc_lookahead=60 / rc=crf / mbtree=1 / crf=18.5 / qcomp=0.60 / qpmin=0 / qpmax=69 / qpstep=4 / ip_ratio=1.40 / aq=3:0.60
Language                                 : English
Default                                  : Yes
Forced                                   : No
Color range                              : Limited
Matrix coefficients                      : BT.709

Audio #1
ID                                       : 2
Format                                   : FLAC
Format/Info                              : Free Lossless Audio Codec
Codec ID                                 : A_FLAC
Duration                                 : 1 h 36 min
Bit rate mode                            : Variable
Bit rate                                 : 309 kb/s
Channel(s)                               : 1 channel
Channel layout                           : C
Sampling rate                            : 48.0 kHz
Frame rate                               : 11.719 FPS (4096 SPF)
Bit depth                                : 16 bits
Compression mode                         : Lossless
Stream size                              : 212 MiB (4%)
Title                                    : Cantonese (Original Theatrical Mix)
Writing library                          : libFLAC 1.2.1 (UTC 2007-09-17)
Language                                 : Chinese
Default                                  : Yes
Forced                                   : No

Audio #2
ID                                       : 3
Format                                   : FLAC
Format/Info                              : Free Lossless Audio Codec
Codec ID                                 : A_FLAC
Duration                                 : 1 h 36 min
Bit rate mode                            : Variable
Bit rate                                 : 364 kb/s
Channel(s)                               : 1 channel
Channel layout                           : C
Sampling rate                            : 48.0 kHz
Frame rate                               : 11.719 FPS (4096 SPF)
Bit depth                                : 16 bits
Compression mode                         : Lossless
Stream size                              : 250 MiB (4%)
Title                                    : Cantonese (Alternate Home Release Mix)
Writing library                          : libFLAC 1.2.1 (UTC 2007-09-17)
Language                                 : Chinese
Default                                  : No
Forced                                   : No

Audio #3
ID                                       : 4
Format                                   : FLAC
Format/Info                              : Free Lossless Audio Codec
Codec ID                                 : A_FLAC
Duration                                 : 1 h 36 min
Bit rate mode                            : Variable
Bit rate                                 : 323 kb/s
Channel(s)                               : 1 channel
Channel layout                           : C
Sampling rate                            : 48.0 kHz
Frame rate                               : 11.719 FPS (4096 SPF)
Bit depth                                : 16 bits
Compression mode                         : Lossless
Stream size                              : 222 MiB (4%)
Title                                    : English (1982 Dub)
Writing library                          : libFLAC 1.2.1 (UTC 2007-09-17)
Language                                 : English
Default                                  : No
Forced                                   : No

Audio #4
ID                                       : 5
Format                                   : AC-3
Format/Info                              : Audio Coding 3
Commercial name                          : Dolby Digital
Codec ID                                 : A_AC3
Duration                                 : 1 h 36 min
Bit rate mode                            : Constant
Bit rate                                 : 640 kb/s
Channel(s)                               : 6 channels
Channel layout                           : L R C LFE Ls Rs
Sampling rate                            : 48.0 kHz
Frame rate                               : 31.250 FPS (1536 SPF)
Compression mode                         : Lossy
Stream size                              : 440 MiB (8%)
Title                                    : English (2003 Dub)
Language                                 : English
Service kind                             : Complete Main
Default                                  : No
Forced                                   : No

Text #1
ID                                       : 6
Format                                   : UTF-8
Codec ID                                 : S_TEXT/UTF8
Codec ID/Info                            : UTF-8 Plain Text
Duration                                 : 1 h 34 min
Bit rate                                 : 81 b/s
Count of elements                        : 1393
Stream size                              : 57.0 KiB (0%)
Title                                    : English
Language                                 : English
Default                                  : Yes
Forced                                   : Yes

Text #2
ID                                       : 7
Format                                   : PGS
Muxing mode                              : zlib
Codec ID                                 : S_HDMV/PGS
Codec ID/Info                            : Picture based subtitle format used on BDs/HD-DVDs
Duration                                 : 1 h 34 min
Bit rate                                 : 40.8 kb/s
Count of elements                        : 2786
Stream size                              : 27.7 MiB (0%)
Title                                    : English
Language                                 : English
Default                                  : No
Forced                                   : No

Text #3
ID                                       : 8
Format                                   : UTF-8
Codec ID                                 : S_TEXT/UTF8
Codec ID/Info                            : UTF-8 Plain Text
Duration                                 : 1 h 34 min
Bit rate                                 : 74 b/s
Count of elements                        : 1299
Stream size                              : 51.5 KiB (0%)
Title                                    : English (simplified)
Language                                 : English
Default                                  : No
Forced                                   : No

Text #4
ID                                       : 9
Format                                   : PGS
Muxing mode                              : zlib
Codec ID                                 : S_HDMV/PGS
Codec ID/Info                            : Picture based subtitle format used on BDs/HD-DVDs
Duration                                 : 1 h 34 min
Bit rate                                 : 36.8 kb/s
Count of elements                        : 2598
Stream size                              : 25.0 MiB (0%)
Title                                    : English (simplified)
Language                                 : English
Default                                  : No
Forced                                   : No

Text #5
ID                                       : 10
Format                                   : UTF-8
Codec ID                                 : S_TEXT/UTF8
Codec ID/Info                            : UTF-8 Plain Text
Duration                                 : 1 h 33 min
Bit rate                                 : 8 b/s
Count of elements                        : 155
Stream size                              : 6.00 KiB (0%)
Title                                    : English forced (for 1982 Dub)
Language                                 : English
Default                                  : No
Forced                                   : No

Text #6
ID                                       : 11
Format                                   : PGS
Muxing mode                              : zlib
Codec ID                                 : S_HDMV/PGS
Codec ID/Info                            : Picture based subtitle format used on BDs/HD-DVDs
Duration                                 : 1 h 33 min
Bit rate                                 : 4 573 b/s
Count of elements                        : 310
Stream size                              : 3.07 MiB (0%)
Title                                    : English forced (for 1982 Dub)
Language                                 : English
Default                                  : No
Forced                                   : No

Text #7
ID                                       : 12
Format                                   : UTF-8
Codec ID                                 : S_TEXT/UTF8
Codec ID/Info                            : UTF-8 Plain Text
Duration                                 : 1 h 33 min
Bit rate                                 : 2 b/s
Count of elements                        : 46
Stream size                              : 1.57 KiB (0%)
Title                                    : English forced (for 2003 Dub)
Language                                 : English
Default                                  : No
Forced                                   : No

Text #8
ID                                       : 13
Format                                   : PGS
Muxing mode                              : zlib
Codec ID                                 : S_HDMV/PGS
Codec ID/Info                            : Picture based subtitle format used on BDs/HD-DVDs
Duration                                 : 1 h 33 min
Bit rate                                 : 1 371 b/s
Count of elements                        : 92
Stream size                              : 942 KiB (0%)
Title                                    : English forced (for 2003 Dub)
Language                                 : English
Default                                  : No
Forced                                   : No

Menu
00:00:00.000                             : en:00:00:00.000
00:08:47.819                             : en:00:08:47.819
00:16:30.072                             : en:00:16:30.072
00:24:31.679                             : en:00:24:31.679
00:34:05.085                             : en:00:34:05.085
00:42:52.153                             : en:00:42:52.153
00:53:32.793                             : en:00:53:32.793
01:01:44.284                             : en:01:01:44.284
01:09:37.173                             : en:01:09:37.173
01:16:18.115                             : en:01:16:18.115
01:23:57.241                             : en:01:23:57.241
01:32:12.736                             : en:01:32:12.736






45c11dad361970af127b06818a1a5a65.zip (29.06 KB, 下载次数: 0)

回复

使用道具 举报

小黑屋|百度云资源论坛 |网站地图

本网站所有资源来自网络,如无意中侵犯了您的权益,请发邮件至 [email protected],立即清除相关链接

GMT+8, 2020-10-2 05:12 , Processed in 0.105315 second(s), 23 queries .

Powered by Discuz! X3.2

© 2001-2013 Comsenz Inc.

快速回复 返回顶部 返回列表