百度云资源论坛

 找回密码
 立即注册
搜索

凡多和莉丝 Fando.and.Lis.1968.720p.BluRay.X264-AMIABLE 6.83GB

[复制链接]
百度云电影 发表于 2020-8-25 09:42:47 | 显示全部楼层 |阅读模式
帖子完整标题:凡多和莉丝 Fando.and.Lis.1968.720p.BluRay.X264-AMIABLE 6.83GB




◎译  名 凡多和莉丝/Fando and Lis/Fando and Lis: Tar Babies/凡多与丽丝/凡多与莉丝:谜之旅(台)
◎片  名 Fando y Lis
◎年  代 1968
◎产  地 墨西哥
◎类  别 奇幻 / 冒险
◎语  言 西班牙语
◎上映日期 1968
◎IMDb评分  7/10 from 4851 users
◎片  长 93 分钟
◎导  演 亚历桑德罗·佐杜洛夫斯基 Alejandro Jodorowsky
◎编  剧 亚历桑德罗·佐杜洛夫斯基 Alejandro Jodorowsky / 费尔南多·阿拉巴尔 Fernando Arrabal
◎主  演 塞尔希奥·克莱纳 Sergio Kleiner
       Carlos Savage
       Alina Sánchez
       Julio Castillo
       Juan José Arreola
       Carlos Ancira
       Rafael Corkidi
       Miguel álvarez Acosta
       亚历桑德罗·佐杜洛夫斯基 Alejandro Jodorowsky
       Amparo Villegas

◎标  签 墨西哥 | AlejandroJodorowsky | Cult | 荒诞 | Alejandro_Jodorowsky | 亚历桑德罗·佐杜洛夫斯基 | 墨西哥电影 | 1960s

◎简  介

  在Jodorowsky的所有我们能看到的电影里——除过之后的《獠牙》跟《彩虹贼》,这部他早期长篇电影《凡多和莉丝》相比起他大名鼎鼎的《鼹鼠》,《圣山》和《圣血》显得十分不起眼。
  
  
  
  不过这部影片维持了Jodorowsky影片一贯的光怪陆离,开始的镜头就是侧躺在桌子上的莉丝生吃掉一朵花,整个故事是一对情侣凡多和他腿有残疾的女朋友莉丝一起去寻找传说中神秘的“Tar之城“一路上的经历,途中不断的有不同的怪人诱惑凡多离开双腿不能动的莉丝,甚至还有凡多的母亲,而他们却好象一直都无法离开原来的地方——酷似煤矿的小山,途中还时常出现他们的幻象(时间太久,记不清楚具体的,大家自己看),在找到了Tar之后,凡多却终于忍受不了莉丝,将她暴打致死,后来他十分懊悔,按照莉丝生前的愿望将她埋葬,在坟头上放上了一朵花,并自己躺在她坟墓旁,直到落下的树叶几乎将他埋没,至此,影片在异常欢快的音乐中结束。
  
  
  
  不过也许是由于对宗教的生僻和文化背景的不同,据说这部影片在墨西哥阿卡普尔科电影节首映的时候观众被吓的四散而走,是因为受不了影片中残忍的镜头,不过看了这部影片我居然莫名其妙的感伤起来,我都不知道我该去想些什么,而Jodorowsky也由此开始他被放逐到海外拍片的生涯,不过之后才有了更经典的《鼹鼠》,《圣山》和《圣血》,也更富有反宗教的意味,相比起《凡多和莉丝》更加被观众认同。
  
  
  
  可能此片仅仅是他古怪念头的最初尝试,虽然情节很古怪,可倒也不至于不知所云,凡多和莉丝他俩寻找的这座“Tar之城”是个异常奇妙的地方,所有的城池在大灾难降临后都被毁了,只有Tar还矗立着,所以人们传说只要到了Tar,就可以获得食物跟美酒,甚至可以获得永恒;到了Tar,才可以真正理解生命,可以爱也可以被爱,会着迷于未来,而且,Tar永远不会遗弃任何一个人…如此完美的地方,可以看成是个严重理想化的境地,接近理想国的过程自然有荆棘和劫难,更要经受意志的考验,而只有知道如何达成理想的人才能最终实现理想,一开始,凡多和莉丝相信只要找到Tar莉丝一定可以重新走路,而他们所有的问题也都会解决,所以说凡多和莉丝可以说是失败了,尽管他们找到了他们的目标,但最终还是被湮灭在了对过分理想化的Tar的畅想中,这也是我觉得这个故事还存在了一丝凄美味道的原因,凡多和莉丝的爱情悲剧可能正因为他俩的迷茫,虽然有生活的方向,却并不知道如何去达成自己的理想,最后演变为绝望,末路,自我以及互相伤害,这多多少少也印证了那个年代青年的心态——尽管Jodorowsky可能并没想这么说。
  
  
  
  精彩的配乐也是Jodorowsky所有影片的共同特点,可惜只找到《鼹鼠》的原声,包括本片在内的其他几部的原声只好继续寻觅了,我尤其是特别喜欢莉丝唱的那首“当我死后,将我埋在….”,曲调很是优美,声音也很有质感,尽管有那么点感伤,好象预知了这可怜女人的结局一样。
  
  
  
  还有就是,片头的那些画,我不知道它们是否也是宗教画,也不知道是否因为没有看明白那些画造成我对本片理解的偏差,所以希望懂的朋友给我解答吧,对于这样的影片我只能介绍,而尽可能的少去评论了。
Video
ID                                       : 1
Format                                   : AVC
Format/Info                              : Advanced Video Codec
Format settings                          : CABAC / 11 Ref Frames
Format settings, CABAC                   : Yes
Format settings, Reference frames        : 11 frames
Codec ID                                 : V_MPEG4/ISO/AVC
Duration                                 : 1 h 36 min
Bit rate                                 : 9 262 kb/s
Width                                    : 990 pixels
Height                                   : 720 pixels
Display aspect ratio                     : 1.375
Frame rate mode                          : Constant
Frame rate                               : 23.976 (24000/1001/189150) FPS
Color space                              : YUV
Chroma subsampling                       : 4:2:0
Bit depth                                : 8 bits
Scan type                                : Progressive
Bits/(Pixel*Frame)                       : 0.542
Stream size                              : 6.28 GiB (92%)
Writing library                          : x264 core 161 r3018 db0d417
Encoding settings                        : cabac=1 / ref=11 / deblock=1:-3:-3 / analyse=0x3:0x133 / me=umh / subme=10 / psy=1 / psy_rd=1.10:0.00 / mixed_ref=1 / me_range=24 / chroma_me=1 / trellis=2 / 8x8dct=1 / cqm=0 / deadzone=21,11 / fast_pskip=0 / chroma_qp_offset=-2 / threads=22 / lookahead_threads=5 / sliced_threads=0 / nr=0 / decimate=0 / interlaced=0 / bluray_compat=0 / constrained_intra=0 / bframes=10 / b_pyramid=2 / b_adapt=2 / b_bias=0 / direct=3 / weightb=1 / open_gop=0 / weightp=2 / keyint=250 / keyint_min=23 / scenecut=40 / intra_refresh=0 / rc=crf / mbtree=0 / crf=16.1 / qcomp=0.60 / qpmin=0 / qpmax=69 / qpstep=4 / ip_ratio=1.30 / pb_ratio=1.20 / aq=3:0.65
Default                                  : Yes
Forced                                   : No
Color range                              : Limited
Matrix coefficients                      : BT.709

Audio #1
ID                                       : 2
Format                                   : FLAC
Format/Info                              : Free Lossless Audio Codec
Codec ID                                 : A_FLAC
Duration                                 : 1 h 36 min
Bit rate mode                            : Variable
Bit rate                                 : 674 kb/s
Channel(s)                               : 1 channel
Channel layout                           : C
Sampling rate                            : 48.0 kHz
Frame rate                               : 11.719 FPS (4096 SPF)
Bit depth                                : 24 bits
Compression mode                         : Lossless
Stream size                              : 468 MiB (7%)
Title                                    : Flac 1.0
Writing library                          : libFLAC 1.2.1 (UTC 2007-09-17)
Language                                 : Spanish
Default                                  : Yes
Forced                                   : No

Audio #2
ID                                       : 3
Format                                   : AAC LC
Format/Info                              : Advanced Audio Codec Low Complexity
Codec ID                                 : A_AAC-2
Duration                                 : 1 h 36 min
Bit rate                                 : 106 kb/s
Channel(s)                               : 2 channels
Channel layout                           : L R
Sampling rate                            : 48.0 kHz
Frame rate                               : 46.875 FPS (1024 SPF)
Compression mode                         : Lossy
Delay relative to video                  : 9 ms
Stream size                              : 73.9 MiB (1%)
Title                                    : Commentary by Alejandro Jodorowsky
Language                                 : English
Default                                  : No
Forced                                   : No

Text #1
ID                                       : 4
Format                                   : UTF-8
Codec ID                                 : S_TEXT/UTF8
Codec ID/Info                            : UTF-8 Plain Text
Duration                                 : 1 h 34 min
Bit rate                                 : 15 b/s
Count of elements                        : 378
Stream size                              : 10.6 KiB (0%)
Title                                    : Forced SRT
Language                                 : English
Default                                  : Yes
Forced                                   : Yes

Text #2
ID                                       : 5
Format                                   : PGS
Muxing mode                              : zlib
Codec ID                                 : S_HDMV/PGS
Codec ID/Info                            : Picture based subtitle format used on BDs/HD-DVDs
Duration                                 : 1 h 35 min
Bit rate                                 : 9 714 b/s
Count of elements                        : 758
Stream size                              : 6.67 MiB (0%)
Title                                    : Forced
Language                                 : English
Default                                  : No
Forced                                   : No

Text #3
ID                                       : 6
Format                                   : UTF-8
Codec ID                                 : S_TEXT/UTF8
Codec ID/Info                            : UTF-8 Plain Text
Duration                                 : 1 h 36 min
Bit rate                                 : 47 b/s
Count of elements                        : 789
Stream size                              : 33.5 KiB (0%)
Title                                    : Commentary by Alejandro Jodorowsky SRT
Language                                 : English
Default                                  : No
Forced                                   : No

Text #4
ID                                       : 7
Format                                   : PGS
Muxing mode                              : zlib
Codec ID                                 : S_HDMV/PGS
Codec ID/Info                            : Picture based subtitle format used on BDs/HD-DVDs
Duration                                 : 1 h 36 min
Bit rate                                 : 29.9 kb/s
Count of elements                        : 1580
Stream size                              : 20.7 MiB (0%)
Title                                    : Commentary by Alejandro Jodorowsky
Language                                 : English
Default                                  : No
Forced                                   : No

Text #5
ID                                       : 8
Format                                   : PGS
Muxing mode                              : zlib
Codec ID                                 : S_HDMV/PGS
Codec ID/Info                            : Picture based subtitle format used on BDs/HD-DVDs
Duration                                 : 1 h 35 min
Bit rate                                 : 10.2 kb/s
Count of elements                        : 756
Stream size                              : 6.97 MiB (0%)
Language                                 : French
Default                                  : No
Forced                                   : No

Text #6
ID                                       : 9
Format                                   : PGS
Muxing mode                              : zlib
Codec ID                                 : S_HDMV/PGS
Codec ID/Info                            : Picture based subtitle format used on BDs/HD-DVDs
Duration                                 : 1 h 36 min
Bit rate                                 : 29.1 kb/s
Count of elements                        : 1584
Stream size                              : 20.2 MiB (0%)
Title                                    : Commentary by Alejandro Jodorowsky
Language                                 : French
Default                                  : No
Forced                                   : No

Text #7
ID                                       : 10
Format                                   : PGS
Muxing mode                              : zlib
Codec ID                                 : S_HDMV/PGS
Codec ID/Info                            : Picture based subtitle format used on BDs/HD-DVDs
Duration                                 : 1 h 34 min
Bit rate                                 : 10.3 kb/s
Count of elements                        : 736
Stream size                              : 7.01 MiB (0%)
Language                                 : Spanish
Default                                  : No
Forced                                   : No

Text #8
ID                                       : 11
Format                                   : PGS
Muxing mode                              : zlib
Codec ID                                 : S_HDMV/PGS
Codec ID/Info                            : Picture based subtitle format used on BDs/HD-DVDs
Duration                                 : 1 h 36 min
Bit rate                                 : 25.4 kb/s
Count of elements                        : 1580
Stream size                              : 17.6 MiB (0%)
Title                                    : Commentary by Alejandro Jodorowsky
Language                                 : Spanish
Default                                  : No
Forced                                   : No

Menu
00:00:00.000                             : :Chapter 01
00:10:51.943                             : :Chapter 02
00:16:35.536                             : :Chapter 03
00:21:53.646                             : :Chapter 04
00:32:35.203                             : :Chapter 05
00:43:37.156                             : :Chapter 06
00:49:47.359                             : :Chapter 07
00:58:09.486                             : :Chapter 08
01:04:57.477                             : :Chapter 09
01:14:03.439                             : :Chapter 10
01:20:05.509                             : :Chapter 11
01:30:04.983                             : :Chapter 12






a43ec5999d2b42219e52ca54ac801ce1.zip (34.87 KB, 下载次数: 0)

回复

使用道具 举报

小黑屋|百度云资源论坛 |网站地图

本网站所有资源来自网络,如无意中侵犯了您的权益,请发邮件至 [email protected],立即清除相关链接

GMT+8, 2020-10-2 06:36 , Processed in 0.149977 second(s), 23 queries .

Powered by Discuz! X3.2

© 2001-2013 Comsenz Inc.

快速回复 返回顶部 返回列表