百度云资源论坛

 找回密码
 立即注册
搜索

龍少爺 Dragon.Lord.1982.PREVIEW.CUT.720p.BluRay.x264-USURY 5.55GB

[复制链接]
百度云电影 发表于 2020-8-25 09:42:47 | 显示全部楼层 |阅读模式
帖子完整标题:龍少爺 Dragon.Lord.1982.PREVIEW.CUT.720p.BluRay.x264-USURY 5.55GB




◎译  名 龙少爷/Dragon Lord
◎片  名 龍少爺
◎年  代 1982
◎产  地 中国香港
◎类  别 喜剧 / 动作 / 运动
◎语  言 粤语
◎上映日期 1982-01-21
◎IMDb评分  6.5/10 from 3296 users
◎片  长 102分钟
◎导  演 成龙 Jackie Chan
◎编  剧 黄炳耀 Barry Wong / 成龙 Jackie Chan / 邓景生 Edward Tang
◎主  演 成龙 Jackie Chan
       陈惠敏 Wai-Man Chan
       郑康业 Kang-Yeh Cheng
       火星 Mars
       何刚 Kang Ho
       吴浣仪 Yuen Yee Ng
       张冲 Paul Chang Chung
       黎强权 Benny Lai Keung-Kuen
       太保 Po Tai
       元奎 Corey Yuen
       孟海 Hoi Mang
       冯克安 Hark-On Fung
       雪梨 Lei Suet
       吴家骧 Chia-hsiang Wu
       田丰 Feng Tien

◎标  签 成龙 | 动作 | 香港 | 喜剧 | 香港电影 | 1982 | 龙少爷 | 电影

◎简  介

  清朝末年,洋人入侵,大厦将倾。大内太监总管程公公(陈惠敏 饰)趁宫中混乱之际,将一件件国宝偷卖给洋人。这天,龙山镇的富家公子、武艺高强的龙少爷(成龙 饰)与朋友外出游玩之际,无意中来到了一处堆满宝藏的地方。看守的人发现了惊奇不已的龙少爷,一路追杀过来。幸好当地王员外暗中相 救,龙少爷才躲过一劫。原来此处是程公公的私藏国宝之地,机关重重。
  
  同时,一直反对程公公所作所为的副总管于海趁乱偷出了一些国宝,程公公得知后大怒,派人追杀于海。龙少爷拔刀相助,反而给王员外也惹来了杀身之祸。怒不可遏的龙少爷决定挑战程公公这个老奸巨猾的卖国贼。

◎获奖情况

  第2届香港电影金像奖 ?(1983)
  最佳动作设计(提名) 成龙?/?YuenKuni
Video
ID                                       : 1
Format                                   : AVC
Format/Info                              : Advanced Video Codec
Format settings                          : CABAC / 12 Ref Frames
Format settings, CABAC                   : Yes
Format settings, Reference frames        : 12 frames
Codec ID                                 : V_MPEG4/ISO/AVC
Duration                                 : 1 h 43 min
Bit rate                                 : 7 314 kb/s
Width                                    : 1 280 pixels
Height                                   : 536 pixels
Display aspect ratio                     : 2.40:1
Frame rate mode                          : Constant
Frame rate                               : 23.976 (24000/1001/189150) FPS
Color space                              : YUV
Chroma subsampling                       : 4:2:0
Bit depth                                : 8 bits
Scan type                                : Progressive
Bits/(Pixel*Frame)                       : 0.445
Stream size                              : 5.27 GiB (95%)
Writing library                          : x264 core 161 r3018 db0d417
Encoding settings                        : cabac=1 / ref=12 / deblock=1:-3:-3 / analyse=0x3:0x133 / me=umh / subme=10 / psy=1 / psy_rd=1.00:0.15 / mixed_ref=1 / me_range=24 / chroma_me=1 / trellis=2 / 8x8dct=1 / cqm=0 / deadzone=21,11 / fast_pskip=1 / chroma_qp_offset=-3 / threads=17 / lookahead_threads=2 / sliced_threads=0 / nr=0 / decimate=1 / interlaced=0 / bluray_compat=0 / constrained_intra=0 / bframes=8 / b_pyramid=2 / b_adapt=2 / b_bias=0 / direct=3 / weightb=1 / open_gop=0 / weightp=2 / keyint=250 / keyint_min=23 / scenecut=40 / intra_refresh=0 / rc_lookahead=60 / rc=crf / mbtree=1 / crf=17.6 / qcomp=0.60 / qpmin=0 / qpmax=69 / qpstep=4 / ip_ratio=1.40 / aq=3:0.60
Language                                 : English
Default                                  : Yes
Forced                                   : No
Color range                              : Limited
Matrix coefficients                      : BT.709

Audio
ID                                       : 2
Format                                   : FLAC
Format/Info                              : Free Lossless Audio Codec
Codec ID                                 : A_FLAC
Duration                                 : 1 h 43 min
Bit rate mode                            : Variable
Bit rate                                 : 311 kb/s
Channel(s)                               : 1 channel
Channel layout                           : C
Sampling rate                            : 48.0 kHz
Frame rate                               : 11.719 FPS (4096 SPF)
Bit depth                                : 16 bits
Compression mode                         : Lossless
Stream size                              : 229 MiB (4%)
Title                                    : Cantonese
Writing library                          : libFLAC 1.2.1 (UTC 2007-09-17)
Language                                 : Chinese
Default                                  : Yes
Forced                                   : No

Text #1
ID                                       : 3
Format                                   : UTF-8
Codec ID                                 : S_TEXT/UTF8
Codec ID/Info                            : UTF-8 Plain Text
Duration                                 : 1 h 41 min
Bit rate                                 : 83 b/s
Count of elements                        : 1512
Stream size                              : 62.5 KiB (0%)
Title                                    : English
Language                                 : English
Default                                  : Yes
Forced                                   : Yes

Text #2
ID                                       : 4
Format                                   : PGS
Muxing mode                              : zlib
Codec ID                                 : S_HDMV/PGS
Codec ID/Info                            : Picture based subtitle format used on BDs/HD-DVDs
Duration                                 : 1 h 41 min
Bit rate                                 : 41.9 kb/s
Count of elements                        : 3024
Stream size                              : 30.6 MiB (1%)
Title                                    : English
Language                                 : English
Default                                  : No
Forced                                   : No

Text #3
ID                                       : 5
Format                                   : UTF-8
Codec ID                                 : S_TEXT/UTF8
Codec ID/Info                            : UTF-8 Plain Text
Duration                                 : 1 h 41 min
Bit rate                                 : 73 b/s
Count of elements                        : 1379
Stream size                              : 55.2 KiB (0%)
Title                                    : English (simplified)
Language                                 : English
Default                                  : No
Forced                                   : No

Text #4
ID                                       : 6
Format                                   : PGS
Muxing mode                              : zlib
Codec ID                                 : S_HDMV/PGS
Codec ID/Info                            : Picture based subtitle format used on BDs/HD-DVDs
Duration                                 : 1 h 41 min
Bit rate                                 : 36.8 kb/s
Count of elements                        : 2758
Stream size                              : 26.8 MiB (0%)
Title                                    : English (simplified)
Language                                 : English
Default                                  : No
Forced                                   : No

Menu
00:00:00.000                             : en:00:00:00.000
00:05:28.870                             : en:00:05:28.870
00:13:00.238                             : en:00:13:00.238
00:18:37.825                             : en:00:18:37.825
00:27:24.685                             : en:00:27:24.685
00:35:56.196                             : en:00:35:56.196
00:45:41.781                             : en:00:45:41.781
00:53:33.168                             : en:00:53:33.168
01:01:28.643                             : en:01:01:28.643
01:09:51.604                             : en:01:09:51.604
01:20:10.347                             : en:01:20:10.347
01:31:52.507                             : en:01:31:52.507




                                                                                                                                                                                                        


f30b3c8c6aa06b59a5bb83fc71809ea7.zip (28.47 KB, 下载次数: 0)

回复

使用道具 举报

小黑屋|百度云资源论坛 |网站地图

本网站所有资源来自网络,如无意中侵犯了您的权益,请发邮件至 [email protected],立即清除相关链接

GMT+8, 2020-10-2 05:34 , Processed in 0.098691 second(s), 23 queries .

Powered by Discuz! X3.2

© 2001-2013 Comsenz Inc.

快速回复 返回顶部 返回列表