百度云资源论坛

 找回密码
 立即注册
搜索

地球太空船 Spaceship.Earth.2020.720p.BluRay.x264-CADAVER 7.99GB

[复制链接]
百度云资源 发表于 2020-8-23 12:26:32 | 显示全部楼层 |阅读模式
帖子完整标题:地球太空船 Spaceship.Earth.2020.720p.BluRay.x264-CADAVER 7.99GB




◎译  名 地球太空船
◎片  名 Spaceship Earth
◎年  代 2020
◎产  地 美国
◎类  别 纪录片
◎上映日期 2020-01-26(圣丹斯电影节) / 2020-05-08(美国)
◎IMDb评分  6.4/10 from 792 users
◎导  演 马特·沃尔夫 Matt Wolf

◎标  签 纪录片 | 美国 | 2020 | 电影 | 太空 | 历史 | 美国纪录片 | 人性

◎简  介

  影片是一部真实、比小说还离奇的冒险片,讲述了8位梦想家1991年在一个名为生物圈2号的自我复制的地球生态系统中度过的两年。这个实验是一个世界性的现象,它记录了人们在面临威胁生命的生态灾难时的日常生活,而且越来越多的人批评它不过是一种邪教。这个离奇的故事既是一个警世故事,也是一个充满希望的教训:一小群梦想家如何可能重新想象一个新世界。
Video
ID                                       : 1
Format                                   : AVC
Format/Info                              : Advanced Video Codec
Format settings                          : CABAC / 9 Ref Frames
Format settings, CABAC                   : Yes
Format settings, Reference frames        : 9 frames
Codec ID                                 : V_MPEG4/ISO/AVC
Duration                                 : 1 h 54 min
Bit rate                                 : 9 201 kb/s
Width                                    : 1 280 pixels
Height                                   : 720 pixels
Display aspect ratio                     : 16:9
Frame rate mode                          : Constant
Frame rate                               : 23.976 (24000/1001/189150) FPS
Color space                              : YUV
Chroma subsampling                       : 4:2:0
Bit depth                                : 8 bits
Scan type                                : Progressive
Bits/(Pixel*Frame)                       : 0.416
Stream size                              : 7.39 GiB (92%)
Writing library                          : x264 core 161 r3018 db0d417
Encoding settings                        : cabac=1 / ref=9 / deblock=1:-3:-3 / analyse=0x3:0x133 / me=umh / subme=10 / psy=1 / psy_rd=1.20:0.00 / mixed_ref=1 / me_range=24 / chroma_me=1 / trellis=2 / 8x8dct=1 / cqm=0 / deadzone=21,11 / fast_pskip=0 / chroma_qp_offset=-2 / threads=22 / lookahead_threads=3 / sliced_threads=0 / nr=0 / decimate=0 / interlaced=0 / bluray_compat=0 / constrained_intra=0 / bframes=8 / b_pyramid=2 / b_adapt=2 / b_bias=0 / direct=3 / weightb=1 / open_gop=0 / weightp=2 / keyint=250 / keyint_min=23 / scenecut=40 / intra_refresh=0 / rc=crf / mbtree=0 / crf=17.0 / qcomp=0.60 / qpmin=0 / qpmax=69 / qpstep=4 / ip_ratio=1.40 / pb_ratio=1.30 / aq=3:0.90
Default                                  : Yes
Forced                                   : No
Color range                              : Limited
Matrix coefficients                      : BT.709

Audio #1
ID                                       : 2
Format                                   : AC-3
Format/Info                              : Audio Coding 3
Commercial name                          : Dolby Digital
Codec ID                                 : A_AC3
Duration                                 : 1 h 54 min
Bit rate mode                            : Constant
Bit rate                                 : 640 kb/s
Channel(s)                               : 6 channels
Channel layout                           : L R C LFE Ls Rs
Sampling rate                            : 48.0 kHz
Frame rate                               : 31.250 FPS (1536 SPF)
Compression mode                         : Lossy
Stream size                              : 526 MiB (6%)
Language                                 : English
Service kind                             : Complete Main
Default                                  : Yes
Forced                                   : No

Audio #2
ID                                       : 3
Format                                   : AAC LC
Format/Info                              : Advanced Audio Codec Low Complexity
Codec ID                                 : A_AAC-2
Duration                                 : 1 h 54 min
Bit rate                                 : 104 kb/s
Channel(s)                               : 2 channels
Channel layout                           : L R
Sampling rate                            : 48.0 kHz
Frame rate                               : 46.875 FPS (1024 SPF)
Compression mode                         : Lossy
Delay relative to video                  : 20 ms
Stream size                              : 85.4 MiB (1%)
Title                                    : Commentary
Language                                 : English
Default                                  : No
Forced                                   : No

Menu
00:00:00.000                             : en:Chapter 01
00:09:43.708                             : en:Chapter 02
00:17:15.618                             : en:Chapter 03
00:27:47.457                             : en:Chapter 04
00:38:23.134                             : en:Chapter 05
00:48:28.322                             : en:Chapter 06
00:58:02.562                             : en:Chapter 07
01:09:51.729                             : en:Chapter 08
01:15:30.192                             : en:Chapter 09
01:24:34.987                             : en:Chapter 10
01:33:12.462                             : en:Chapter 11
01:50:08.435                             : en:Chapter 12






0b345dbab0085eb6b9696775b71eb29b.zip (40.65 KB, 下载次数: 0)

回复

使用道具 举报

小黑屋|百度云资源论坛 |网站地图

本网站所有资源来自网络,如无意中侵犯了您的权益,请发邮件至 [email protected],立即清除相关链接

GMT+8, 2020-9-21 13:19 , Processed in 0.115266 second(s), 23 queries .

Powered by Discuz! X3.2

© 2001-2013 Comsenz Inc.

快速回复 返回顶部 返回列表