百度云资源论坛

 找回密码
 立即注册
搜索

侠盗/重装救援:全境猎杀 Rogue.2020.720p.BluRay.x264.DTS-FGT 5.19GB

[复制链接]
百度云资源 发表于 2020-8-23 12:26:32 | 显示全部楼层 |阅读模式
帖子完整标题:侠盗/重装救援:全境猎杀 Rogue.2020.720p.BluRay.x264.DTS-FGT 5.19GB




◎译  名 侠盗/重装救援:全境猎杀(台)
◎片  名 Rogue
◎年  代 2020
◎产  地 英国,南非
◎类  别 动作 / 战争
◎语  言 英语
◎上映日期 2020-08-28(美国)
◎导  演 迈克尔·巴塞特 Michael J. Bassett
◎编  剧 迈克尔·巴塞特 Michael J. Bassett
◎主  演 梅根·福克斯 Megan Fox
       杰西卡·萨顿 Jessica Sutton
       菲利普·文切斯特 Philip Winchester
       李-安妮·莱本伯格 Lee-Anne Liebenberg
       布兰登·奥雷 Brandon Auret
       格雷格·克列克 Greg Kriek
       亚当·迪康 Adam Deacon
       塔梅尔·伯贾克 Tamer Burjaq
       肯尼思·霍 Kenneth Fok

◎标  签 动作 | 2020 | 美国 | 线上 | 英国 | 等评分 | 电影 | 彩色

◎简  介

  讲述梅根饰演角色带领的一支雇佣兵,原本要去非洲某地营救人质,但不幸中了埋伏。在逃亡过程中,雇佣兵小队不仅要防人类的子弹,还要避开狮子的攻击。
Video
ID                                       : 1
Format                                   : AVC
Format/Info                              : Advanced Video Codec
Format settings                          : CABAC / 4 Ref Frames
Format settings, CABAC                   : Yes
Format settings, Reference frames        : 4 frames
Codec ID                                 : V_MPEG4/ISO/AVC
Duration                                 : 1 h 45 min
Bit rate                                 : 5 500 kb/s
Width                                    : 1 280 pixels
Height                                   : 534 pixels
Display aspect ratio                     : 2.40:1
Original display aspect ratio            : 2.40:1
Frame rate mode                          : Constant
Frame rate                               : 23.976 (24000/1001/189150) FPS
Color space                              : YUV
Chroma subsampling                       : 4:2:0
Bit depth                                : 8 bits
Scan type                                : Progressive
Bits/(Pixel*Frame)                       : 0.336
Stream size                              : 4.07 GiB (78%)
Title                                    : Rogue.2020.720p.BluRay.x264.DTS-FGT
Writing library                          : x264 core 148 r2795M aaa9aa8
Encoding settings                        : cabac=1 / ref=4 / deblock=1:-2:-2 / analyse=0x3:0x113 / me=umh / subme=9 / psy=1 / psy_rd=1.00:0.15 / mixed_ref=1 / me_range=16 / chroma_me=1 / trellis=2 / 8x8dct=1 / cqm=0 / deadzone=21,11 / fast_pskip=1 / chroma_qp_offset=-3 / threads=72 / lookahead_threads=3 / sliced_threads=0 / nr=0 / decimate=1 / interlaced=0 / bluray_compat=0 / constrained_intra=0 / bframes=3 / b_pyramid=2 / b_adapt=1 / b_bias=0 / direct=3 / weightb=1 / open_gop=0 / weightp=2 / keyint=250 / keyint_min=25 / scenecut=40 / intra_refresh=0 / rc_lookahead=50 / rc=2pass / mbtree=1 / bitrate=5500 / ratetol=1.0 / qcomp=0.60 / qpmin=0 / qpmax=69 / qpstep=4 / cplxblur=20.0 / qblur=0.5 / vbv_maxrate=31250 / vbv_bufsize=31250 / nal_hrd=none / filler=0 / ip_ratio=1.40 / aq=1:1.00
Language                                 : English
Default                                  : Yes
Forced                                   : No

Audio
ID                                       : 2
Format                                   : DTS
Format/Info                              : Digital Theater Systems
Codec ID                                 : A_DTS
Duration                                 : 1 h 45 min
Bit rate mode                            : Constant
Bit rate                                 : 1 509 kb/s
Channel(s)                               : 6 channels
Channel layout                           : C L R Ls Rs LFE
Sampling rate                            : 48.0 kHz
Frame rate                               : 93.750 FPS (512 SPF)
Bit depth                                : 24 bits
Compression mode                         : Lossy
Stream size                              : 1.12 GiB (22%)
Title                                    : Rogue.2020.720p.BluRay.x264.DTS-FGT
Language                                 : English
Default                                  : Yes
Forced                                   : No

Text
ID                                       : 3
Format                                   : UTF-8
Codec ID                                 : S_TEXT/UTF8
Codec ID/Info                            : UTF-8 Plain Text
Duration                                 : 1 h 38 min
Bit rate                                 : 51 b/s
Count of elements                        : 1321
Stream size                              : 37.0 KiB (0%)
Language                                 : English
Default                                  : Yes
Forced                                   : No

Menu
00:00:00.000                             : en:Chapter 01
00:04:05.495                             : en:Chapter 02
00:10:55.446                             : en:Chapter 03
00:22:56.124                             : en:Chapter 04
00:29:20.884                             : en:Chapter 05
00:35:27.291                             : en:Chapter 06
00:42:17.785                             : en:Chapter 07
00:48:10.095                             : en:Chapter 08
00:55:41.129                             : en:Chapter 09
00:59:56.509                             : en:Chapter 10
01:06:03.167                             : en:Chapter 11
01:11:49.305                             : en:Chapter 12
01:19:04.406                             : en:Chapter 13
01:21:53.450                             : en:Chapter 14
01:29:26.903                             : en:Chapter 15
01:34:17.526                             : en:Chapter 16




                                                                                                                                                                                                        


26109edd371327e01ff238a026b09cbb.zip (26.55 KB, 下载次数: 0)

回复

使用道具 举报

小黑屋|百度云资源论坛 |网站地图

本网站所有资源来自网络,如无意中侵犯了您的权益,请发邮件至 [email protected],立即清除相关链接

GMT+8, 2020-9-20 21:22 , Processed in 0.108378 second(s), 23 queries .

Powered by Discuz! X3.2

© 2001-2013 Comsenz Inc.

快速回复 返回顶部 返回列表