百度云资源论坛

 找回密码
 立即注册
搜索

雨果 Hugo.2011.3D.1080p.BluRay.x264-GUACAMOLE 14.02GB

[复制链接]
百度云资源 发表于 2020-8-22 18:24:42 | 显示全部楼层 |阅读模式
帖子完整标题:雨果 Hugo.2011.3D.1080p.BluRay.x264-GUACAMOLE 14.02GB




◎译  名 雨果 / The Invention of Hugo Cabret / 发明男孩雨果 / 造梦的雨果 / 雨果·卡布里特的发明 / 雨果的冒险(台) / 雨果的巴黎奇幻历险(港) / 雨果的秘密
◎片  名 Hugo
◎年  代 2011
◎产  地 英国 / 美国 / 法国
◎类  别 剧情 / 儿童 / 奇幻 / 冒险
◎语  言 英语
◎上映日期 2011-11-23(美国) / 2012-05-31(中国大陆)
◎IMDb评分  7.5/10 from 297924 users
◎片  长 127分钟
◎导  演 马丁·斯科塞斯 Martin Scorsese
◎编  剧 约翰·洛根 John Logan / 布赖恩·塞尔兹尼克 Brian Selznick
◎主  演 阿沙·巴特菲尔德 Asa Butterfield
       科洛·莫瑞兹 Chloe Moretz
       本·金斯利 Ben Kingsley
       萨莎·拜伦·科恩 Sacha Baron Cohen
       裘德·洛 Jude Law
       雷·温斯顿 Ray Winstone
       克里斯托弗·李 Christopher Lee
       理查德·格雷弗斯 Richard Griffiths
       海伦·麦克洛瑞 Helen McCrory
       弗朗西斯·德·拉·图瓦 Frances de la Tour
       迈克尔·斯图巴 Michael Stuhlbarg
       艾米莉·莫迪默 Emily Mortimer
       马丁·斯科塞斯 Martin Scorsese


◎标  签 美国 | 奇幻 | 剧情 | 温情 | 2011 | 成长 | 奥斯卡 | 绘本小说

◎简  介   

  小男孩雨果(阿沙·巴特菲尔德 Asa Butterfield 饰)天生机械控。他寄宿巴黎火车站钟楼,偶尔会去玩具店偷些零件,用来修补父亲(裘德·洛 Jude Law 饰)留下的机器人。一次行窃,他被店主乔治?梅里埃(本·金斯利 Ben Kingsley 饰)当场抓获,因 忌惮带猎狗的巡警(萨莎·拜伦·科恩 Sacha Baron Cohen 饰)只得就范。乔治拿走了雨果父亲的遗物——一本机械手册,令他心急如焚,他尾随至乔治家中,结识了养女伊莎贝拉(科洛·莫瑞兹 Chlo? Moretz 饰),他恳求她帮自己保住手册。而伊莎贝拉则觉得此事蹊跷,于是两人结伴探秘。修好的机器人作画的落款却显示乔治的名字,让他们疑心顿起。终于他们发现了乔治家中装满画作的神秘柜子,并在图书馆的电影书籍中发现了乔治的身世。一位知情人的显身,让他们的奇幻冒险更添神秘……
  本片根据布莱恩?瑟兹尼克的同名小说改编,是马丁?斯科塞斯的首部3D力作。

◎获奖情况  

  第84届奥斯卡金像奖(2012)
  最佳影片(提名) 马丁·斯科塞斯 / 格拉汉姆·金
  最佳导演(提名) 马丁·斯科塞斯
  最佳改编剧本(提名) 约翰·洛根
  最佳摄影 罗伯特·理查森
  最佳剪辑(提名) 塞尔玛·斯昆梅克
  最佳视觉效果 本·格罗斯曼 / 亚历克斯·汉宁 / 乔斯·威廉姆斯 / 罗伯特·莱加托
  最佳混音 约翰·米奇利 / 汤姆·弗莱施曼
  最佳音效剪辑 菲利普·斯托克顿 / 尤金·吉尔蒂
  最佳艺术指导 弗朗西斯卡·罗·夏沃 / 丹提·费瑞提
  最佳服装设计(提名) 桑迪·鲍威尔
  最佳原创配乐(提名) 霍华德·肖

  第69届金球奖(2012)
  电影类 最佳剧情片(提名)
  电影类 最佳导演 马丁·斯科塞斯
  电影类 最佳原创配乐(提名) 霍华德·肖

  第56届意大利大卫奖(2012)
  最佳外语片(提名) 马丁·斯科塞斯

  第77届纽约影评人协会奖(2011)
  最佳影片(提名)
  最佳导演(提名) 马丁·斯科塞斯
  最佳摄影(提名) 罗伯特·理查森

  第17届美国评论家选择电影奖(2012)
  最佳影片(提名)
  最佳导演(提名) 马丁·斯科塞斯
  最佳青少年演员(提名) 阿萨·巴特菲尔德
  最佳改编剧本(提名) 约翰·洛根
  最佳摄影(提名) 罗伯特·理查森
  最佳剪辑(提名) 塞尔玛·斯昆梅克
  最佳配乐(提名) 霍华德·肖
  最佳美术指导 弗朗西斯卡·罗·夏沃 / 丹提·费瑞提
  最佳服装设计(提名) 桑迪·鲍威尔
  最佳音效(提名)
  最佳视觉效果(提名)

  第12届美国电影学会奖(2011)
  年度佳片

  第10届华盛顿影评人协会奖(2011)
  最佳影片(提名)
  最佳导演 马丁·斯科塞斯
  最佳改编剧本(提名) 约翰·洛根
  最佳群戏(提名)
  最佳摄影(提名) 罗伯特·理查森
  最佳配乐(提名) 霍华德·肖
  最佳艺术指导 弗朗西斯卡·罗·夏沃 / 丹提·费瑞提

  第32届波士顿影评人协会奖(2011)
  最佳影片(提名)
  最佳导演 马丁·斯科塞斯
  最佳摄影(提名) 罗伯特·理查森
  最佳剪辑(提名) 塞尔玛·斯昆梅克

  第16届圣地亚哥影评人协会奖(2011)
  最佳影片(提名)
  最佳导演(提名) 马丁·斯科塞斯
  最佳改编剧本(提名) 约翰·洛根
  最佳摄影(提名) 罗伯特·理查森
  最佳剪辑(提名) 塞尔玛·斯昆梅克
  最佳配乐(提名) 霍华德·肖
  最佳艺术指导 丹提·费瑞提

  第24届芝加哥影评人协会奖(2011)
  最佳影片(提名)
  最佳导演(提名) 马丁·斯科塞斯
  最佳改编剧本(提名) 约翰·洛根
  最佳摄影(提名) 罗伯特·理查森
  最佳原创配乐(提名) 霍华德·肖

  第45届堪萨斯影评人协会奖(2012)
  最佳科幻/恐怖片

  第11届凤凰城影评人协会奖(2011)
  最佳导演(提名) 马丁·斯科塞斯
  最佳改编剧本(提名) 约翰·洛根
  最佳摄影(提名) 罗伯特·理查森
  最佳服装设计(提名) 桑迪·鲍威尔
  最佳艺术指导 丹提·费瑞提
  最佳视觉效果
  最佳真人家庭电影(提名)
  最佳青年男演员(提名) 阿萨·巴特菲尔德
  最佳青年女演员(提名) 科洛·莫瑞兹
  十佳影片

  第20届东南影评人协会奖(2011)
  最佳导演 马丁·斯科塞斯
  最佳摄影(提名) 罗伯特·理查森
  十大佳片
Video
ID                                       : 1
Format                                   : AVC
Format/Info                              : Advanced Video Codec
MultiView_Count                          : 2
MultiView_Layout                         : Side by Side (left eye first)
Format settings                          : CABAC / 4 Ref Frames
Format settings, CABAC                   : Yes
Format settings, Reference frames        : 4 frames
Codec ID                                 : V_MPEG4/ISO/AVC
Duration                                 : 2 h 6 min
Bit rate                                 : 10.9 Mb/s
Width                                    : 1 920 pixels
Height                                   : 1 080 pixels
Display aspect ratio                     : 16:9
Frame rate mode                          : Constant
Frame rate                               : 23.976 (24000/1001/189150) FPS
Color space                              : YUV
Chroma subsampling                       : 4:2:0
Bit depth                                : 8 bits
Scan type                                : Progressive
Bits/(Pixel*Frame)                       : 0.219
Stream size                              : 9.63 GiB (69%)
Writing library                          : x264 core 161 r3018 db0d417
Encoding settings                        : cabac=1 / ref=4 / deblock=1:-3:-3 / analyse=0x3:0x133 / me=umh / subme=9 / psy=1 / psy_rd=1.00:0.00 / mixed_ref=1 / me_range=32 / chroma_me=1 / trellis=2 / 8x8dct=1 / cqm=0 / deadzone=21,11 / fast_pskip=0 / chroma_qp_offset=-2 / threads=24 / lookahead_threads=2 / sliced_threads=0 / nr=0 / decimate=1 / interlaced=0 / bluray_compat=0 / constrained_intra=0 / bframes=3 / b_pyramid=2 / b_adapt=2 / b_bias=0 / direct=3 / weightb=1 / open_gop=0 / weightp=2 / keyint=250 / keyint_min=23 / scenecut=40 / intra_refresh=0 / rc=crf / mbtree=0 / crf=17.0 / qcomp=0.60 / qpmin=0 / qpmax=69 / qpstep=4 / ip_ratio=1.40 / pb_ratio=1.30 / aq=3:0.80
Language                                 : English
Default                                  : Yes
Forced                                   : No
Color range                              : Limited
Color primaries                          : BT.709
Transfer characteristics                 : BT.709
Matrix coefficients                      : BT.709

Audio
ID                                       : 2
Format                                   : DTS XLL
Format/Info                              : Digital Theater Systems
Commercial name                          : DTS-HD Master Audio
Codec ID                                 : A_DTS
Duration                                 : 2 h 6 min
Bit rate mode                            : Variable
Bit rate                                 : 4 894 kb/s
Channel(s)                               : 8 channels
Channel layout                           : C L R LFE Lb Rb Lss Rss
Sampling rate                            : 48.0 kHz
Frame rate                               : 93.750 FPS (512 SPF)
Bit depth                                : 24 bits
Compression mode                         : Lossless
Stream size                              : 4.32 GiB (31%)
Language                                 : English
Default                                  : Yes
Forced                                   : No

Text #1
ID                                       : 3
Format                                   : PGS
Muxing mode                              : zlib
Codec ID                                 : S_HDMV/PGS
Codec ID/Info                            : Picture based subtitle format used on BDs/HD-DVDs
Duration                                 : 1 h 57 min
Bit rate                                 : 40.4 kb/s
Count of elements                        : 1948
Stream size                              : 33.9 MiB (0%)
Language                                 : English
Default                                  : No
Forced                                   : No

Text #2
ID                                       : 4
Format                                   : PGS
Muxing mode                              : zlib
Codec ID                                 : S_HDMV/PGS
Codec ID/Info                            : Picture based subtitle format used on BDs/HD-DVDs
Duration                                 : 2 h 0 min
Bit rate                                 : 46.4 kb/s
Count of elements                        : 2360
Stream size                              : 40.1 MiB (0%)
Title                                    : SDH
Language                                 : English
Default                                  : No
Forced                                   : No

Text #3
ID                                       : 5
Format                                   : PGS
Muxing mode                              : zlib
Codec ID                                 : S_HDMV/PGS
Codec ID/Info                            : Picture based subtitle format used on BDs/HD-DVDs
Duration                                 : 1 h 57 min
Bit rate                                 : 41.2 kb/s
Count of elements                        : 1904
Stream size                              : 34.7 MiB (0%)
Language                                 : French
Default                                  : No
Forced                                   : No

Text #4
ID                                       : 6
Format                                   : PGS
Muxing mode                              : zlib
Codec ID                                 : S_HDMV/PGS
Codec ID/Info                            : Picture based subtitle format used on BDs/HD-DVDs
Duration                                 : 1 h 57 min
Bit rate                                 : 36.2 kb/s
Count of elements                        : 1878
Stream size                              : 30.4 MiB (0%)
Language                                 : Spanish
Default                                  : No
Forced                                   : No

Text #5
ID                                       : 7
Format                                   : PGS
Muxing mode                              : zlib
Codec ID                                 : S_HDMV/PGS
Codec ID/Info                            : Picture based subtitle format used on BDs/HD-DVDs
Duration                                 : 1 h 57 min
Bit rate                                 : 37.0 kb/s
Count of elements                        : 1922
Stream size                              : 31.1 MiB (0%)
Language                                 : Portuguese
Default                                  : No
Forced                                   : No

Menu
00:00:00.000                             : en:Kapitel 01
00:09:35.533                             : en:Kapitel 02
00:17:20.664                             : en:Kapitel 03
00:23:32.911                             : en:Kapitel 04
00:30:34.541                             : en:Kapitel 05
00:38:26.262                             : en:Kapitel 06
00:47:36.270                             : en:Kapitel 07
00:55:37.542                             : en:Kapitel 08
01:03:43.694                             : en:Kapitel 09
01:12:46.862                             : en:Kapitel 10
01:19:59.169                             : en:Kapitel 11
01:27:10.099                             : en:Kapitel 12
01:33:03.494                             : en:Kapitel 13
01:42:41.280                             : en:Kapitel 14
01:53:47.779                             : en:Kapitel 15
01:59:58.441                             : en:Kapitel 16




                                                                                                                                                                                                        
                                                                                                                                                                                                                                                                                                                                                                                                                                                                                                                                                                                                                                                                                                                                 
18679bad866e277b1853e1810338f815.zip (71.58 KB, 下载次数: 0)

回复

使用道具 举报

小黑屋|百度云资源论坛 |网站地图

本网站所有资源来自网络,如无意中侵犯了您的权益,请发邮件至 [email protected],立即清除相关链接

GMT+8, 2020-11-25 01:42 , Processed in 0.119290 second(s), 23 queries .

Powered by Discuz! X3.2

© 2001-2013 Comsenz Inc.

快速回复 返回顶部 返回列表