百度云资源论坛

 找回密码
 立即注册
搜索

不可抗拒/无法抗拒 Irresistible.2020.720p.BluRay.x264-YOL0W 6.38GB

[复制链接]
百度云电影 发表于 2020-8-22 18:19:30 | 显示全部楼层 |阅读模式
帖子完整标题:不可抗拒/无法抗拒 Irresistible.2020.720p.BluRay.x264-YOL0W 6.38GB




◎译  名 不可抗拒/无法抗拒
◎片  名 Irresistible
◎年  代 2020
◎产  地 美国
◎类  别 剧情 / 喜剧
◎语  言 英语
◎上映日期 2020-06-26(美国)
◎IMDb评分  6.2/10 from 5400 users
◎片  长 102分钟
◎导  演 乔恩·斯图尔特 Jon Stewart
◎编  剧 乔恩·斯图尔特 Jon Stewart
◎主  演 史蒂夫·卡瑞尔 Steve Carell
       罗丝·伯恩 Rose Byrne
       麦肯兹·戴维斯 Mackenzie Davis
       娜塔莎·雷昂 Natasha Lyonne
       克里斯·库珀 Chris Cooper
       托弗·戈瑞斯 Topher Grace
       黛博拉·梅辛 Debra Messing
       威尔·萨索 Will Sasso
       布伦特·塞克斯顿 Brent Sexton
       伊芙·戈登 Eve Gordon
       艾伦·艾森伯格 Alan Aisenberg
       杰森·戴维斯 Jason Davis
       C·J·威尔逊 C.J.Wilson
       查尔斯·格林 Charles Green
       威廉·托卡斯基 William Tokarsky
       帕蒂·舍尔哈斯 Patti Schellhaas
       Steve Barnes
       皮特·布里斯 Pete Burris
       埃莫·欧文斯 Amor Owens
       Rick Yudt
       Sasha Morfaw
       Annie Cook
       Jason Vendryes
       蕾丝·拉雷比 Lace Larrabee
       罗伯特·廷斯利 Robert Tinsley

◎标  签 喜剧 | 政治 | 美国 | 2020 | 美国电影 | 乔恩·斯图尔特 | SteveCarell | RoseByrne

◎简  介

  故事讲述了一位老练的民主党战略家(卡瑞尔饰)在威斯康星州的一座右翼小镇,帮助一位退休的老将竞选市长。
Video
ID                                       : 1
Format                                   : AVC
Format/Info                              : Advanced Video Codec
Format settings                          : CABAC / 8 Ref Frames
Format settings, CABAC                   : Yes
Format settings, Reference frames        : 8 frames
Codec ID                                 : V_MPEG4/ISO/AVC
Duration                                 : 1 h 41 min
Bit rate                                 : 8 252 kb/s
Width                                    : 1 200 pixels
Height                                   : 720 pixels
Display aspect ratio                     : 5:3
Frame rate mode                          : Constant
Frame rate                               : 23.976 (24000/1001/189150) FPS
Color space                              : YUV
Chroma subsampling                       : 4:2:0
Bit depth                                : 8 bits
Scan type                                : Progressive
Bits/(Pixel*Frame)                       : 0.398
Stream size                              : 5.86 GiB (92%)
Writing library                          : x264 core 161 r3018 db0d417
Encoding settings                        : cabac=1 / ref=8 / deblock=1:-3:-3 / analyse=0x3:0x133 / me=umh / subme=9 / psy=1 / psy_rd=1.00:0.00 / mixed_ref=1 / me_range=24 / chroma_me=1 / trellis=2 / 8x8dct=1 / cqm=0 / deadzone=21,11 / fast_pskip=0 / chroma_qp_offset=-2 / threads=22 / lookahead_threads=3 / sliced_threads=0 / nr=0 / decimate=1 / interlaced=0 / bluray_compat=0 / constrained_intra=0 / bframes=8 / b_pyramid=2 / b_adapt=2 / b_bias=0 / direct=3 / weightb=1 / open_gop=0 / weightp=2 / keyint=250 / keyint_min=23 / scenecut=40 / intra_refresh=0 / rc=crf / mbtree=0 / crf=15.3 / qcomp=0.60 / qpmin=0 / qpmax=69 / qpstep=4 / ip_ratio=1.40 / pb_ratio=1.30 / aq=3:0.80
Default                                  : Yes
Forced                                   : No
Color range                              : Limited
Matrix coefficients                      : BT.709

Audio
ID                                       : 2
Format                                   : AC-3
Format/Info                              : Audio Coding 3
Commercial name                          : Dolby Digital
Codec ID                                 : A_AC3
Duration                                 : 1 h 41 min
Bit rate mode                            : Constant
Bit rate                                 : 640 kb/s
Channel(s)                               : 6 channels
Channel layout                           : L R C LFE Ls Rs
Sampling rate                            : 48.0 kHz
Frame rate                               : 31.250 FPS (1536 SPF)
Compression mode                         : Lossy
Stream size                              : 465 MiB (7%)
Title                                    : English
Language                                 : English
Service kind                             : Complete Main
Default                                  : Yes
Forced                                   : No

Text #1
ID                                       : 3
ID in the original source medium         : 4608 (0x1200)
Format                                   : PGS
Muxing mode                              : zlib
Codec ID                                 : S_HDMV/PGS
Codec ID/Info                            : Picture based subtitle format used on BDs/HD-DVDs
Duration                                 : 1 h 40 min
Bit rate                                 : 62.6 kb/s
Count of elements                        : 3550
Stream size                              : 45.1 MiB (1%)
Language                                 : English
Default                                  : No
Forced                                   : No
Original source medium                   : Blu-ray

Text #2
ID                                       : 4
ID in the original source medium         : 4609 (0x1201)
Format                                   : PGS
Muxing mode                              : zlib
Codec ID                                 : S_HDMV/PGS
Codec ID/Info                            : Picture based subtitle format used on BDs/HD-DVDs
Duration                                 : 1 h 41 min
Bit rate                                 : 51.5 kb/s
Count of elements                        : 3254
Stream size                              : 37.3 MiB (1%)
Language                                 : Spanish
Default                                  : No
Forced                                   : No
Original source medium                   : Blu-ray

Text #3
ID                                       : 5
ID in the original source medium         : 4610 (0x1202)
Format                                   : PGS
Muxing mode                              : zlib
Codec ID                                 : S_HDMV/PGS
Codec ID/Info                            : Picture based subtitle format used on BDs/HD-DVDs
Duration                                 : 1 h 41 min
Bit rate                                 : 60.9 kb/s
Count of elements                        : 3336
Stream size                              : 44.1 MiB (1%)
Language                                 : French
Default                                  : No
Forced                                   : No
Original source medium                   : Blu-ray

Menu
00:00:00.000                             : en:Chapter 01
00:04:51.291                             : en:Chapter 02
00:10:15.448                             : en:Chapter 03
00:13:29.017                             : en:Chapter 04
00:18:12.717                             : en:Chapter 05
00:25:48.964                             : en:Chapter 06
00:29:34.898                             : en:Chapter 07
00:35:03.893                             : en:Chapter 08
00:38:58.461                             : en:Chapter 09
00:43:48.793                             : en:Chapter 10
00:48:48.342                             : en:Chapter 11
00:54:43.155                             : en:Chapter 12
01:02:36.086                             : en:Chapter 13
01:08:10.295                             : en:Chapter 14
01:12:35.977                             : en:Chapter 15
01:17:51.375                             : en:Chapter 16
01:21:37.601                             : en:Chapter 17
01:25:55.025                             : en:Chapter 18
01:29:29.406                             : en:Chapter 19
01:35:01.237                             : en:Chapter 20






d9eb208e5998126d8f9a0b877afa902b.zip (32.57 KB, 下载次数: 0)

回复

使用道具 举报

小黑屋|百度云资源论坛 |网站地图

本网站所有资源来自网络,如无意中侵犯了您的权益,请发邮件至 [email protected],立即清除相关链接

GMT+8, 2020-9-20 16:27 , Processed in 0.113620 second(s), 23 queries .

Powered by Discuz! X3.2

© 2001-2013 Comsenz Inc.

快速回复 返回顶部 返回列表