百度云资源论坛

 找回密码
 立即注册
搜索

风行者/超自然战场 The.Wind.Walker.2019.720p.BluRay.x264-GETiT 2.86GB

[复制链接]
百度云电影 发表于 2020-8-22 18:19:30 | 显示全部楼层 |阅读模式
帖子完整标题:风行者/超自然战场 The.Wind.Walker.2019.720p.BluRay.x264-GETiT 2.86GB




◎译  名 风行者 / 超自然战场
◎片  名 The Wind Walker
◎年  代 2020
◎产  地 美国
◎类  别 冒险
◎语  言 英语
◎上映日期 2020-01-19(美国)
◎IMDb评分  2.7/10 from 79 users
◎片  长 88分钟
◎导  演 Tom Chaney
◎编  剧 David G.B. Brown / Tom Chaney
◎主  演 埃里克·罗伯茨 Eric Roberts
       Lauren Mae Shafer
       Louie Kurtzman
       Tim Lovelace
       Axel Harney
       Brian Kruger


◎标  签 烂片 | 美国 | 惊悚 | 恐怖 | 美国电影 | 2020 | 改编 | HD1080P-Mp4Ba

◎简  介   

  改編自同名小說《風行者》。二十五年前,美國最受歡迎的作家傑克文森特走進密西根州北部的黑暗樹林,寫下了他最偉大的一本書《風行者》,但他再也沒踏出那片森林。二十五年後,他的兒子小傑克決定展開一場眾所皆知的冒險,完成他父親未竟之業,但是命運帶來的衝擊,已超越文字所帶來的想像…
Video
ID                                       : 1
Format                                   : AVC
Format/Info                              : Advanced Video Codec
Format settings                          : CABAC / 8 Ref Frames
Format settings, CABAC                   : Yes
Format settings, Reference frames        : 8 frames
Codec ID                                 : V_MPEG4/ISO/AVC
Duration                                 : 1 h 28 min
Bit rate                                 : 3 958 kb/s
Width                                    : 1 280 pixels
Height                                   : 536 pixels
Display aspect ratio                     : 2.40:1
Frame rate mode                          : Constant
Frame rate                               : 23.976 (24000/1001/189150) FPS
Color space                              : YUV
Chroma subsampling                       : 4:2:0
Bit depth                                : 8 bits
Scan type                                : Progressive
Bits/(Pixel*Frame)                       : 0.241
Stream size                              : 2.46 GiB (86%)
Writing library                          : x264 core 160 r3000 33f9e14
Encoding settings                        : cabac=1 / ref=8 / deblock=1:-3:-3 / analyse=0x3:0x133 / me=umh / subme=9 / psy=1 / psy_rd=1.00:0.00 / mixed_ref=1 / me_range=16 / chroma_me=1 / trellis=2 / 8x8dct=1 / cqm=0 / deadzone=21,11 / fast_pskip=1 / chroma_qp_offset=-2 / threads=17 / lookahead_threads=1 / sliced_threads=0 / nr=0 / decimate=1 / interlaced=0 / bluray_compat=0 / constrained_intra=0 / bframes=3 / b_pyramid=2 / b_adapt=2 / b_bias=0 / direct=3 / weightb=1 / open_gop=0 / weightp=2 / keyint=250 / keyint_min=23 / scenecut=40 / intra_refresh=0 / rc_lookahead=60 / rc=crf / mbtree=1 / crf=17.0 / qcomp=0.60 / qpmin=0 / qpmax=69 / qpstep=4 / ip_ratio=1.40 / aq=3:0.80
Language                                 : English
Default                                  : Yes
Forced                                   : No
Color range                              : Limited
Matrix coefficients                      : BT.709

Audio
ID                                       : 2
Format                                   : AC-3
Format/Info                              : Audio Coding 3
Commercial name                          : Dolby Digital
Codec ID                                 : A_AC3
Duration                                 : 1 h 28 min
Bit rate mode                            : Constant
Bit rate                                 : 640 kb/s
Channel(s)                               : 6 channels
Channel layout                           : L R C LFE Ls Rs
Sampling rate                            : 48.0 kHz
Frame rate                               : 31.250 FPS (1536 SPF)
Compression mode                         : Lossy
Stream size                              : 407 MiB (14%)
Title                                    : ac3
Language                                 : English
Service kind                             : Complete Main
Default                                  : Yes
Forced                                   : No

Menu
00:00:00.000                             : en:00:00:00.000
00:06:50.827                             : en:00:06:50.827
00:14:24.781                             : en:00:14:24.781
00:24:47.736                             : en:00:24:47.736
00:33:18.371                             : en:00:33:18.371
00:42:34.427                             : en:00:42:34.427
00:50:32.571                             : en:00:50:32.571
01:03:02.988                             : en:01:03:02.988
01:07:48.731                             : en:01:07:48.731
01:19:36.522                             : en:01:19:36.522




                                                                                                                                                                                                        


3505b75b61d8188e6d65b9c154abcfc2.zip (30.06 KB, 下载次数: 0)

回复

使用道具 举报

小黑屋|百度云资源论坛 |网站地图

本网站所有资源来自网络,如无意中侵犯了您的权益,请发邮件至 [email protected],立即清除相关链接

GMT+8, 2020-9-24 18:28 , Processed in 0.100823 second(s), 23 queries .

Powered by Discuz! X3.2

© 2001-2013 Comsenz Inc.

快速回复 返回顶部 返回列表