百度云资源论坛

 找回密码
 立即注册
搜索

当她醒来 After.She.Wakes.2019.720p.BluRay.x264-GETiT 1.33GB

[复制链接]
百度云资源 发表于 2020-8-22 18:19:30 | 显示全部楼层 |阅读模式
帖子完整标题:当她醒来 After.She.Wakes.2019.720p.BluRay.x264-GETiT 1.33GB




◎译  名 当她醒来
◎片  名 When She Wakes
◎年  代 2019
◎产  地 美国
◎类  别 恐怖
◎语  言 英语
◎上映日期 2019-12-13(美国)
◎IMDb评分  4.9/10 from 1055 users
◎片  长 91分钟
◎导  演 David Arthur Clark
◎编  剧 David Arthur Clark
◎主  演 康拉德·古德 Conrad Goode
       Nicola Lambo
       Micah Parker


◎标  签 恐怖 | 美国 | 悬疑 | 04-烂片 | 美国电影 | 惊悚 | 恐怖惊悚悬疑重口血腥 | 当她醒来

◎简  介   

  After a horrific tragedy, an isolated mother and daughter dealing with grief develop terrifying sleep disruptions that manifest into a sinister reality.
Video
ID                                       : 1
Format                                   : AVC
Format/Info                              : Advanced Video Codec
Format settings                          : CABAC / 8 Ref Frames
Format settings, CABAC                   : Yes
Format settings, Reference frames        : 8 frames
Codec ID                                 : V_MPEG4/ISO/AVC
Duration                                 : 1 h 17 min
Bit rate                                 : 1 805 kb/s
Width                                    : 1 280 pixels
Height                                   : 534 pixels
Display aspect ratio                     : 2.40:1
Frame rate mode                          : Constant
Frame rate                               : 23.976 (24000/1001/189150) FPS
Color space                              : YUV
Chroma subsampling                       : 4:2:0
Bit depth                                : 8 bits
Scan type                                : Progressive
Bits/(Pixel*Frame)                       : 0.110
Stream size                              : 1 004 MiB (74%)
Writing library                          : x264 core 160 r3000 33f9e14
Encoding settings                        : cabac=1 / ref=8 / deblock=1:-3:-3 / analyse=0x3:0x133 / me=umh / subme=9 / psy=1 / psy_rd=1.00:0.00 / mixed_ref=1 / me_range=16 / chroma_me=1 / trellis=2 / 8x8dct=1 / cqm=0 / deadzone=21,11 / fast_pskip=1 / chroma_qp_offset=-2 / threads=17 / lookahead_threads=1 / sliced_threads=0 / nr=0 / decimate=1 / interlaced=0 / bluray_compat=0 / constrained_intra=0 / bframes=3 / b_pyramid=2 / b_adapt=2 / b_bias=0 / direct=3 / weightb=1 / open_gop=0 / weightp=2 / keyint=250 / keyint_min=23 / scenecut=40 / intra_refresh=0 / rc_lookahead=60 / rc=crf / mbtree=1 / crf=17.0 / qcomp=0.60 / qpmin=0 / qpmax=69 / qpstep=4 / ip_ratio=1.40 / aq=3:0.80
Language                                 : English
Default                                  : Yes
Forced                                   : No
Color range                              : Limited
Matrix coefficients                      : BT.709

Audio
ID                                       : 2
Format                                   : AC-3
Format/Info                              : Audio Coding 3
Commercial name                          : Dolby Digital
Codec ID                                 : A_AC3
Duration                                 : 1 h 17 min
Bit rate mode                            : Constant
Bit rate                                 : 640 kb/s
Channel(s)                               : 2 channels
Channel layout                           : L R
Sampling rate                            : 48.0 kHz
Frame rate                               : 31.250 FPS (1536 SPF)
Compression mode                         : Lossy
Stream size                              : 356 MiB (26%)
Title                                    : ac3
Language                                 : English
Service kind                             : Complete Main
Default                                  : Yes
Forced                                   : No

Menu
00:00:00.000                             : en:00:00:00.000
00:09:30.570                             : en:00:09:30.570
00:20:09.208                             : en:00:20:09.208
00:29:47.786                             : en:00:29:47.786
00:40:10.408                             : en:00:40:10.408
00:48:59.937                             : en:00:48:59.937
00:57:26.443                             : en:00:57:26.443
01:07:38.054                             : en:01:07:38.054
01:14:57.493                             : en:01:14:57.493




                                                                                                                                                                                                        


82622941e14a47467a8efbbb923fda82.zip (14.76 KB, 下载次数: 0)

回复

使用道具 举报

小黑屋|百度云资源论坛 |网站地图

本网站所有资源来自网络,如无意中侵犯了您的权益,请发邮件至 [email protected],立即清除相关链接

GMT+8, 2020-9-24 19:53 , Processed in 0.118788 second(s), 23 queries .

Powered by Discuz! X3.2

© 2001-2013 Comsenz Inc.

快速回复 返回顶部 返回列表