百度云资源论坛

 找回密码
 立即注册
搜索

机器生活 Life.Like.2019.720p.BluRay.x264-GETiT 1.42GB

[复制链接]
百度云资源 发表于 2020-8-22 18:19:30 | 显示全部楼层 |阅读模式
帖子完整标题:机器生活 Life.Like.2019.720p.BluRay.x264-GETiT 1.42GB




◎译  名 机器生活 / Love Thy Keepers
◎片  名 Life Like
◎年  代 2019
◎产  地 美国
◎类  别 科幻
◎语  言 英语
◎上映日期 2019-05-14(美国)
◎IMDb评分  5.4/10 from 1067 users
◎片  长 95分钟
◎导  演 乔什·加诺维茨 Josh Janowicz
◎编  剧 乔什·加诺维茨 Josh Janowicz
◎主  演 艾狄森·蒂姆林 Addison Timlin
       詹姆斯·达西 James D'Arcy
       史蒂文·斯崔特 Steven Strait
       德鲁·凡·阿克尔 Drew Van Acker
       马克·法姆吉列蒂 Mark Famiglietti
       里桑·瓦伦丁 Lisann Valentin
       埃朗·米歇尔·蒙汉 Ellen Michelle Monohan
       希拉里·巴拉福德 Hilary Barraford
       尼古拉斯·巴迪 Nicholas Baroudi


◎标  签 科幻 | 美国 | 同性 | 伦理 | 2019 | 主仆 | 剧情 | 人性

◎简  介   

  一对理想主义的年轻夫妇获得了一个逼真得令人惊叹的机器人,机器人的帮助使他们无忧无虑,但随着他们日渐亲近,他们对人性的感知将会改变。
Video
ID                                       : 1
Format                                   : AVC
Format/Info                              : Advanced Video Codec
Format settings                          : CABAC / 8 Ref Frames
Format settings, CABAC                   : Yes
Format settings, Reference frames        : 8 frames
Codec ID                                 : V_MPEG4/ISO/AVC
Duration                                 : 1 h 35 min
Bit rate                                 : 1 485 kb/s
Width                                    : 1 280 pixels
Height                                   : 538 pixels
Display aspect ratio                     : 2.40:1
Frame rate mode                          : Constant
Frame rate                               : 23.976 (24000/1001/189150) FPS
Color space                              : YUV
Chroma subsampling                       : 4:2:0
Bit depth                                : 8 bits
Scan type                                : Progressive
Bits/(Pixel*Frame)                       : 0.090
Stream size                              : 1 013 MiB (70%)
Writing library                          : x264 core 160 r3000 33f9e14
Encoding settings                        : cabac=1 / ref=8 / deblock=1:-3:-3 / analyse=0x3:0x133 / me=umh / subme=9 / psy=1 / psy_rd=1.00:0.00 / mixed_ref=1 / me_range=16 / chroma_me=1 / trellis=2 / 8x8dct=1 / cqm=0 / deadzone=21,11 / fast_pskip=1 / chroma_qp_offset=-2 / threads=17 / lookahead_threads=1 / sliced_threads=0 / nr=0 / decimate=1 / interlaced=0 / bluray_compat=0 / constrained_intra=0 / bframes=3 / b_pyramid=2 / b_adapt=2 / b_bias=0 / direct=3 / weightb=1 / open_gop=0 / weightp=2 / keyint=250 / keyint_min=23 / scenecut=40 / intra_refresh=0 / rc_lookahead=60 / rc=crf / mbtree=1 / crf=17.0 / qcomp=0.60 / qpmin=0 / qpmax=69 / qpstep=4 / ip_ratio=1.40 / aq=3:0.80
Language                                 : English
Default                                  : Yes
Forced                                   : No
Color range                              : Limited
Matrix coefficients                      : BT.709

Audio
ID                                       : 2
Format                                   : AC-3
Format/Info                              : Audio Coding 3
Commercial name                          : Dolby Digital
Codec ID                                 : A_AC3
Duration                                 : 1 h 35 min
Bit rate mode                            : Constant
Bit rate                                 : 640 kb/s
Channel(s)                               : 6 channels
Channel layout                           : L R C LFE Ls Rs
Sampling rate                            : 48.0 kHz
Frame rate                               : 31.250 FPS (1536 SPF)
Compression mode                         : Lossy
Stream size                              : 436 MiB (30%)
Title                                    : ac3
Language                                 : English
Service kind                             : Complete Main
Default                                  : Yes
Forced                                   : No

Text
ID                                       : 3
Format                                   : PGS
Muxing mode                              : zlib
Codec ID                                 : S_HDMV/PGS
Codec ID/Info                            : Picture based subtitle format used on BDs/HD-DVDs
Duration                                 : 1 h 30 min
Bit rate                                 : 8 455 b/s
Count of elements                        : 1713
Stream size                              : 5.50 MiB (0%)
Title                                    : vob sub
Language                                 : German
Default                                  : No
Forced                                   : No

Menu
00:00:00.000                             : en:00:00:00.000
00:07:03.506                             : en:00:07:03.506
00:13:03.324                             : en:00:13:03.324
00:18:38.993                             : en:00:18:38.993
00:25:43.792                             : en:00:25:43.792
00:31:16.583                             : en:00:31:16.583
00:42:49.650                             : en:00:42:49.650
00:52:54.880                             : en:00:52:54.880
01:03:31.349                             : en:01:03:31.349
01:11:14.479                             : en:01:11:14.479
01:20:22.526                             : en:01:20:22.526
01:30:37.098                             : en:01:30:37.098




                                                                                                                                                                                                        


97bc637168365d6cbca87dba0a7bfb9a.zip (14.87 KB, 下载次数: 0)

回复

使用道具 举报

小黑屋|百度云资源论坛 |网站地图

本网站所有资源来自网络,如无意中侵犯了您的权益,请发邮件至 [email protected],立即清除相关链接

GMT+8, 2020-9-28 16:24 , Processed in 0.106101 second(s), 23 queries .

Powered by Discuz! X3.2

© 2001-2013 Comsenz Inc.

快速回复 返回顶部 返回列表